  0
SECTION
  2
HEADER
  9
$ACADVER
  1
AC1015
  9
$ACADMAINTVER
 70
     6
  9
$DWGCODEPAGE
  3
ANSI_1252
  9
$INSBASE
 10
0.0
 20
0.0
 30
0.0
  9
$EXTMIN
 10
-105.0000000000001
 20
0.0
 30
0.0
  9
$EXTMAX
 10
0.0
 20
148.5000000000001
 30
0.0
  9
$LIMMIN
 10
0.0
 20
0.0
  9
$LIMMAX
 10
12.0
 20
9.0
  9
$ORTHOMODE
 70
     0
  9
$REGENMODE
 70
     1
  9
$FILLMODE
 70
     1
  9
$QTEXTMODE
 70
     0
  9
$MIRRTEXT
 70
     1
  9
$LTSCALE
 40
1.0
  9
$ATTMODE
 70
     1
  9
$TEXTSIZE
 40
0.2
  9
$TRACEWID
 40
0.05
  9
$TEXTSTYLE
  7
Standard
  9
$CLAYER
  8
0
  9
$CELTYPE
  6
ByLayer
  9
$CECOLOR
 62
   256
  9
$CELTSCALE
 40
1.0
  9
$DISPSILH
 70
     0
  9
$DIMSCALE
 40
1.0
  9
$DIMASZ
 40
0.18
  9
$DIMEXO
 40
0.0625
  9
$DIMDLI
 40
0.38
  9
$DIMRND
 40
0.0
  9
$DIMDLE
 40
0.0
  9
$DIMEXE
 40
0.18
  9
$DIMTP
 40
0.0
  9
$DIMTM
 40
0.0
  9
$DIMTXT
 40
0.18
  9
$DIMCEN
 40
0.09
  9
$DIMTSZ
 40
0.0
  9
$DIMTOL
 70
     0
  9
$DIMLIM
 70
     0
  9
$DIMTIH
 70
     1
  9
$DIMTOH
 70
     1
  9
$DIMSE1
 70
     0
  9
$DIMSE2
 70
     0
  9
$DIMTAD
 70
     0
  9
$DIMZIN
 70
     0
  9
$DIMBLK
  1

  9
$DIMASO
 70
     1
  9
$DIMSHO
 70
     1
  9
$DIMPOST
  1

  9
$DIMAPOST
  1

  9
$DIMALT
 70
     0
  9
$DIMALTD
 70
     2
  9
$DIMALTF
 40
25.4
  9
$DIMLFAC
 40
1.0
  9
$DIMTOFL
 70
     0
  9
$DIMTVP
 40
0.0
  9
$DIMTIX
 70
     0
  9
$DIMSOXD
 70
     0
  9
$DIMSAH
 70
     0
  9
$DIMBLK1
  1

  9
$DIMBLK2
  1

  9
$DIMSTYLE
  2
Standard
  9
$DIMCLRD
 70
     0
  9
$DIMCLRE
 70
     0
  9
$DIMCLRT
 70
     0
  9
$DIMTFAC
 40
1.0
  9
$DIMGAP
 40
0.09
  9
$DIMJUST
 70
     0
  9
$DIMSD1
 70
     0
  9
$DIMSD2
 70
     0
  9
$DIMTOLJ
 70
     1
  9
$DIMTZIN
 70
     0
  9
$DIMALTZ
 70
     0
  9
$DIMALTTZ
 70
     0
  9
$DIMUPT
 70
     0
  9
$DIMDEC
 70
     4
  9
$DIMTDEC
 70
     4
  9
$DIMALTU
 70
     2
  9
$DIMALTTD
 70
     2
  9
$DIMTXSTY
  7
Standard
  9
$DIMAUNIT
 70
     0
  9
$DIMADEC
 70
     0
  9
$DIMALTRND
 40
0.0
  9
$DIMAZIN
 70
     0
  9
$DIMDSEP
 70
    46
  9
$DIMATFIT
 70
     3
  9
$DIMFRAC
 70
     0
  9
$DIMLDRBLK
  1

  9
$DIMLUNIT
 70
     2
  9
$DIMLWD
 70
    -2
  9
$DIMLWE
 70
    -2
  9
$DIMTMOVE
 70
     0
  9
$LUNITS
 70
     2
  9
$LUPREC
 70
     4
  9
$SKETCHINC
 40
0.1
  9
$FILLETRAD
 40
0.5
  9
$AUNITS
 70
     0
  9
$AUPREC
 70
     0
  9
$MENU
  1
.
  9
$ELEVATION
 40
0.0
  9
$PELEVATION
 40
0.0
  9
$THICKNESS
 40
0.0
  9
$LIMCHECK
 70
     0
  9
$CHAMFERA
 40
0.5
  9
$CHAMFERB
 40
0.5
  9
$CHAMFERC
 40
1.0
  9
$CHAMFERD
 40
0.0
  9
$SKPOLY
 70
     0
  9
$TDCREATE
 40
2456997.49131566
  9
$TDUCREATE
 40
2456997.449648993
  9
$TDUPDATE
 40
2456997.491315845
  9
$TDUUPDATE
 40
2456997.449649178
  9
$TDINDWG
 40
0.0000000116
  9
$TDUSRTIMER
 40
0.0000000116
  9
$USRTIMER
 70
     1
  9
$ANGBASE
 50
0.0
  9
$ANGDIR
 70
     0
  9
$PDMODE
 70
     0
  9
$PDSIZE
 40
0.0
  9
$PLINEWID
 40
0.0
  9
$SPLFRAME
 70
     0
  9
$SPLINETYPE
 70
     6
  9
$SPLINESEGS
 70
     8
  9
$HANDSEED
  5
1B4
  9
$SURFTAB1
 70
     6
  9
$SURFTAB2
 70
     6
  9
$SURFTYPE
 70
     6
  9
$SURFU
 70
     6
  9
$SURFV
 70
     6
  9
$UCSBASE
  2

  9
$UCSNAME
  2

  9
$UCSORG
 10
0.0
 20
0.0
 30
0.0
  9
$UCSXDIR
 10
1.0
 20
0.0
 30
0.0
  9
$UCSYDIR
 10
0.0
 20
1.0
 30
0.0
  9
$UCSORTHOREF
  2

  9
$UCSORTHOVIEW
 70
     0
  9
$UCSORGTOP
 10
0.0
 20
0.0
 30
0.0
  9
$UCSORGBOTTOM
 10
0.0
 20
0.0
 30
0.0
  9
$UCSORGLEFT
 10
0.0
 20
0.0
 30
0.0
  9
$UCSORGRIGHT
 10
0.0
 20
0.0
 30
0.0
  9
$UCSORGFRONT
 10
0.0
 20
0.0
 30
0.0
  9
$UCSORGBACK
 10
0.0
 20
0.0
 30
0.0
  9
$PUCSBASE
  2

  9
$PUCSNAME
  2

  9
$PUCSORG
 10
0.0
 20
0.0
 30
0.0
  9
$PUCSXDIR
 10
1.0
 20
0.0
 30
0.0
  9
$PUCSYDIR
 10
0.0
 20
1.0
 30
0.0
  9
$PUCSORTHOREF
  2

  9
$PUCSORTHOVIEW
 70
     0
  9
$PUCSORGTOP
 10
0.0
 20
0.0
 30
0.0
  9
$PUCSORGBOTTOM
 10
0.0
 20
0.0
 30
0.0
  9
$PUCSORGLEFT
 10
0.0
 20
0.0
 30
0.0
  9
$PUCSORGRIGHT
 10
0.0
 20
0.0
 30
0.0
  9
$PUCSORGFRONT
 10
0.0
 20
0.0
 30
0.0
  9
$PUCSORGBACK
 10
0.0
 20
0.0
 30
0.0
  9
$USERI1
 70
     0
  9
$USERI2
 70
     0
  9
$USERI3
 70
     0
  9
$USERI4
 70
     0
  9
$USERI5
 70
     0
  9
$USERR1
 40
18.1
  9
$USERR2
 40
0.0
  9
$USERR3
 40
0.0
  9
$USERR4
 40
0.0
  9
$USERR5
 40
0.0
  9
$WORLDVIEW
 70
     1
  9
$SHADEDGE
 70
     3
  9
$SHADEDIF
 70
    70
  9
$TILEMODE
 70
     1
  9
$MAXACTVP
 70
    64
  9
$PINSBASE
 10
0.0
 20
0.0
 30
0.0
  9
$PLIMCHECK
 70
     0
  9
$PEXTMIN
 10
1.00000000000000E+20
 20
1.00000000000000E+20
 30
1.00000000000000E+20
  9
$PEXTMAX
 10
-1.00000000000000E+20
 20
-1.00000000000000E+20
 30
-1.00000000000000E+20
  9
$PLIMMIN
 10
0.0
 20
0.0
  9
$PLIMMAX
 10
12.0
 20
9.0
  9
$UNITMODE
 70
     0
  9
$VISRETAIN
 70
     1
  9
$PLINEGEN
 70
     0
  9
$PSLTSCALE
 70
     1
  9
$TREEDEPTH
 70
  3020
  9
$CMLSTYLE
  2
Standard
  9
$CMLJUST
 70
     0
  9
$CMLSCALE
 40
1.0
  9
$PROXYGRAPHICS
 70
     1
  9
$MEASUREMENT
 70
     1
  9
$CELWEIGHT
370
    -1
  9
$ENDCAPS
280
     0
  9
$JOINSTYLE
280
     0
  9
$LWDISPLAY
290
     0
  9
$INSUNITS
 70
     4
  9
$HYPERLINKBASE
  1

  9
$STYLESHEET
  1

  9
$XEDIT
290
     1
  9
$CEPSNTYPE
380
     0
  9
$PSTYLEMODE
290
     1
  9
$FINGERPRINTGUID
  2
{498BD246-E506-42F9-B4FA-67F65738A18A}
  9
$VERSIONGUID
  2
{FAEB1C32-E019-11D5-929B-00C0DF256EC4}
  9
$EXTNAMES
290
     1
  9
$PSVPSCALE
 40
0.0
  9
$OLESTARTUP
290
     0
  0
ENDSEC
  0
SECTION
  2
CLASSES
  0
CLASS
  1
ACDBDICTIONARYWDFLT
  2
AcDbDictionaryWithDefault
  3
ObjectDBX Classes
 90
        0
280
     0
281
     0
  0
CLASS
  1
VISUALSTYLE
  2
AcDbVisualStyle
  3
ObjectDBX Classes
 90
     4095
280
     0
281
     0
  0
CLASS
  1
MATERIAL
  2
AcDbMaterial
  3
ObjectDBX Classes
 90
     1153
280
     0
281
     0
  0
CLASS
  1
DICTIONARYVAR
  2
AcDbDictionaryVar
  3
ObjectDBX Classes
 90
        0
280
     0
281
     0
  0
CLASS
  1
ACDBPLACEHOLDER
  2
AcDbPlaceHolder
  3
ObjectDBX Classes
 90
        0
280
     0
281
     0
  0
CLASS
  1
LAYOUT
  2
AcDbLayout
  3
ObjectDBX Classes
 90
        0
280
     0
281
     0
  0
ENDSEC
  0
SECTION
  2
TABLES
  0
TABLE
  2
VPORT
  5
8
330
0
100
AcDbSymbolTable
 70
     1
  0
VPORT
  5
29
330
8
100
AcDbSymbolTableRecord
100
AcDbViewportTableRecord
  2
*Active
 70
     0
 10
0.0
 20
0.0
 11
1.0
 21
1.0
 12
-52.50000000000005
 22
74.25000000000006
 13
0.0
 23
0.0
 14
0.5
 24
0.5
 15
0.5
 25
0.5
 16
0.0
 26
0.0
 36
1.0
 17
0.0
 27
0.0
 37
0.0
 40
163.3500000000001
 41
1.60267857142857
 42
50.0
 43
0.0
 44
0.0
 50
0.0
 51
0.0
 71
     0
 72
   100
 73
     1
 74
     3
 75
     0
 76
     0
 77
     0
 78
     0
281
     0
 65
     1
110
0.0
120
0.0
130
0.0
111
1.0
121
0.0
131
0.0
112
0.0
122
1.0
132
0.0
 79
     0
146
0.0
  0
ENDTAB
  0
TABLE
  2
LTYPE
  5
5
330
0
100
AcDbSymbolTable
 70
     8
  0
LTYPE
  5
14
330
5
100
AcDbSymbolTableRecord
100
AcDbLinetypeTableRecord
  2
ByBlock
 70
     0
  3

 72
    65
 73
     0
 40
0.0
  0
LTYPE
  5
15
330
5
100
AcDbSymbolTableRecord
100
AcDbLinetypeTableRecord
  2
ByLayer
 70
     0
  3

 72
    65
 73
     0
 40
0.0
  0
LTYPE
  5
16
330
5
100
AcDbSymbolTableRecord
100
AcDbLinetypeTableRecord
  2
Continuous
 70
     0
  3
Solid line
 72
    65
 73
     0
 40
0.0
  0
LTYPE
  5
3F
330
5
100
AcDbSymbolTableRecord
100
AcDbLinetypeTableRecord
  2
DASHED
 70
     0
  3
Dashed
 72
    65
 73
     2
 40
15.0
 49
7.0
 74
     0
 49
-8.0
 74
     0
  0
LTYPE
  5
40
330
5
100
AcDbSymbolTableRecord
100
AcDbLinetypeTableRecord
  2
DOTTED
 70
     0
  3
Dotted
 72
    65
 73
     2
 40
1.0
 49
0.0
 74
     0
 49
-1.0
 74
     0
  0
LTYPE
  5
41
330
5
100
AcDbSymbolTableRecord
100
AcDbLinetypeTableRecord
  2
DOT_CENTER
 70
     0
  3
Dot_Center
 72
    65
 73
     4
 40
14.0
 49
12.0
 74
     0
 49
-1.0
 74
     0
 49
0.0
 74
     0
 49
-1.0
 74
     0
  0
LTYPE
  5
42
330
5
100
AcDbSymbolTableRecord
100
AcDbLinetypeTableRecord
  2
LONG_DASHED
 70
     0
  3
Long_Dashed
 72
    65
 73
     2
 40
15.0
 49
10.0
 74
     0
 49
-5.0
 74
     0
  0
LTYPE
  5
43
330
5
100
AcDbSymbolTableRecord
100
AcDbLinetypeTableRecord
  2
DASH_CENTER
 70
     0
  3
Dash_Center
 72
    65
 73
     4
 40
14.0
 49
11.0
 74
     0
 49
-1.0
 74
     0
 49
1.0
 74
     0
 49
-1.0
 74
     0
  0
LTYPE
  5
44
330
5
100
AcDbSymbolTableRecord
100
AcDbLinetypeTableRecord
  2
PHANTOM
 70
     0
  3
Phantom
 72
    65
 73
     6
 40
13.0
 49
10.0
 74
     0
 49
-1.0
 74
     0
 49
0.0
 74
     0
 49
-1.0
 74
     0
 49
0.0
 74
     0
 49
-1.0
 74
     0
  0
LTYPE
  5
45
330
5
100
AcDbSymbolTableRecord
100
AcDbLinetypeTableRecord
  2
CENTER_DASH_DASH
 70
     0
  3
Center_Dash_Dash
 72
    65
 73
     6
 40
14.0
 49
9.0
 74
     0
 49
-1.0
 74
     0
 49
1.0
 74
     0
 49
-1.0
 74
     0
 49
1.0
 74
     0
 49
-1.0
 74
     0
  0
ENDTAB
  0
TABLE
  2
LAYER
  5
2
330
0
100
AcDbSymbolTable
 70
     2
  0
LAYER
  5
10
330
2
100
AcDbSymbolTableRecord
100
AcDbLayerTableRecord
  2
0
 70
     0
 62
     7
  6
Continuous
370
    -3
390
F
  0
LAYER
  5
46
330
2
100
AcDbSymbolTableRecord
100
AcDbLayerTableRecord
  2
1
 70
     0
 62
     7
  6
Continuous
370
    -3
390
F
  0
ENDTAB
  0
TABLE
  2
STYLE
  5
3
330
0
100
AcDbSymbolTable
 70
     4
  0
STYLE
  5
11
330
3
100
AcDbSymbolTableRecord
100
AcDbTextStyleTableRecord
  2
Standard
 70
     0
 40
0.0
 41
1.0
 50
0.0
 71
     0
 42
0.2
  3
txt
  4

  0
STYLE
  5
12D
330
3
100
AcDbSymbolTableRecord
100
AcDbTextStyleTableRecord
  2
CONVERTER_11
 70
     0
 40
0.0
 41
1.2
 50
0.0
 71
     0
 42
0.2
  3
ARIAL.TTF
  4

  0
STYLE
  5
130
330
3
100
AcDbSymbolTableRecord
100
AcDbTextStyleTableRecord
  2
CONVERTER_12
 70
     0
 40
0.0
 41
1.44
 50
0.0
 71
     0
 42
0.2
  3
ARIAL.TTF
  4

  0
STYLE
  5
13F
330
3
100
AcDbSymbolTableRecord
100
AcDbTextStyleTableRecord
  2
CONVERTER_13
 70
     0
 40
0.0
 41
0.95
 50
0.0
 71
     0
 42
0.2
  3
simplex.shx
  4

  0
ENDTAB
  0
TABLE
  2
VIEW
  5
6
330
0
100
AcDbSymbolTable
 70
     0
  0
ENDTAB
  0
TABLE
  2
UCS
  5
7
330
0
100
AcDbSymbolTable
 70
     0
  0
ENDTAB
  0
TABLE
  2
APPID
  5
9
330
0
100
AcDbSymbolTable
 70
     1
  0
APPID
  5
12
330
9
100
AcDbSymbolTableRecord
100
AcDbRegAppTableRecord
  2
ACAD
 70
     0
  0
ENDTAB
  0
TABLE
  2
DIMSTYLE
  5
A
330
0
100
AcDbSymbolTable
 70
     7
100
AcDbDimStyleTable
  0
DIMSTYLE
105
27
330
A
100
AcDbSymbolTableRecord
100
AcDbDimStyleTableRecord
  2
Standard
 70
     0
178
     0
340
11
  0
DIMSTYLE
105
143
102
{ACAD_REACTORS
330
144
102
}
330
A
100
AcDbSymbolTableRecord
100
AcDbDimStyleTableRecord
  2
ME10_DIM_10
 70
     0
  3
ø<>
 41
1.5
 42
0.25
 44
0.5
 77
     1
 78
     8
140
1.5
147
1.0
172
     1
173
     1
174
     1
175
     1
176
     2
177
     2
271
     2
178
     4
271
     2
340
13F
  0
DIMSTYLE
105
151
102
{ACAD_REACTORS
330
152
102
}
330
A
100
AcDbSymbolTableRecord
100
AcDbDimStyleTableRecord
  2
ME10_DIM_11
 70
     0
  3
ø<>
 41
1.5
 42
0.25
 44
0.5
 77
     1
 78
     8
140
1.5
147
1.0
172
     1
173
     1
174
     1
175
     1
176
     2
177
     2
271
     2
178
     4
271
     2
340
13F
  0
DIMSTYLE
105
15C
102
{ACAD_REACTORS
330
15D
102
}
330
A
100
AcDbSymbolTableRecord
100
AcDbDimStyleTableRecord
  2
ME10_DIM_12
 70
     0
  3
ø<>
 41
1.5
 42
0.25
 44
0.5
 77
     1
 78
     8
140
1.5
147
1.0
172
     1
173
     1
174
     1
175
     1
176
     2
177
     2
271
     2
178
     4
271
     2
340
13F
  0
DIMSTYLE
105
168
102
{ACAD_REACTORS
330
169
102
}
330
A
100
AcDbSymbolTableRecord
100
AcDbDimStyleTableRecord
  2
ME10_DIM_13
 70
     0
 41
1.5
 42
0.25
 44
0.5
 77
     1
 78
     8
140
1.5
147
1.0
172
     1
173
     1
174
     1
175
     1
176
     2
177
     2
271
     2
178
     4
271
     2
340
13F
  0
DIMSTYLE
105
174
102
{ACAD_REACTORS
330
175
102
}
330
A
100
AcDbSymbolTableRecord
100
AcDbDimStyleTableRecord
  2
ME10_DIM_14
 70
     0
 41
1.5
 42
0.25
 44
0.5
 77
     1
 78
     8
140
1.5
147
1.0
172
     1
173
     1
174
     1
175
     1
176
     2
177
     2
271
     2
178
     4
271
     2
340
13F
  0
DIMSTYLE
105
180
102
{ACAD_REACTORS
330
181
102
}
330
A
100
AcDbSymbolTableRecord
100
AcDbDimStyleTableRecord
  2
ME10_DIM_15
 70
     0
  3
min.<>
 41
1.5
 42
0.25
 44
0.5
 77
     1
 78
     8
140
1.5
147
1.0
172
     1
173
     1
174
     1
175
     1
176
     2
177
     2
271
     2
178
     4
271
     2
340
13F
  0
ENDTAB
  0
TABLE
  2
BLOCK_RECORD
  5
1
330
0
100
AcDbSymbolTable
 70
     7
  0
BLOCK_RECORD
  5
1F
330
1
100
AcDbSymbolTableRecord
100
AcDbBlockTableRecord
  2
*Model_Space
340
22
  0
BLOCK_RECORD
  5
1B
330
1
100
AcDbSymbolTableRecord
100
AcDbBlockTableRecord
  2
*Paper_Space
340
1E
  0
BLOCK_RECORD
  5
23
330
1
100
AcDbSymbolTableRecord
100
AcDbBlockTableRecord
  2
*Paper_Space0
340
26
  0
BLOCK_RECORD
  5
137
330
1
100
AcDbSymbolTableRecord
100
AcDbBlockTableRecord
  2
*D1
340
0
  0
BLOCK_RECORD
  5
145
330
1
100
AcDbSymbolTableRecord
100
AcDbBlockTableRecord
  2
*D2
340
0
  0
BLOCK_RECORD
  5
153
330
1
100
AcDbSymbolTableRecord
100
AcDbBlockTableRecord
  2
*D3
340
0
  0
BLOCK_RECORD
  5
15E
330
1
100
AcDbSymbolTableRecord
100
AcDbBlockTableRecord
  2
*D4
340
0
  0
BLOCK_RECORD
  5
16A
330
1
100
AcDbSymbolTableRecord
100
AcDbBlockTableRecord
  2
*D5
340
0
  0
BLOCK_RECORD
  5
176
330
1
100
AcDbSymbolTableRecord
100
AcDbBlockTableRecord
  2
*D6
340
0
  0
ENDTAB
  0
ENDSEC
  0
SECTION
  2
BLOCKS
  0
BLOCK
  5
20
330
1F
100
AcDbEntity
  8
0
100
AcDbBlockBegin
  2
*Model_Space
 70
     0
 10
0.0
 20
0.0
 30
0.0
  3
*Model_Space
  1

  0
ENDBLK
  5
21
330
1F
100
AcDbEntity
  8
0
100
AcDbBlockEnd
  0
BLOCK
  5
1C
330
1B
100
AcDbEntity
 67
     1
  8
0
100
AcDbBlockBegin
  2
*Paper_Space
 70
     0
 10
0.0
 20
0.0
 30
0.0
  3
*Paper_Space
  1

  0
ENDBLK
  5
1D
330
1B
100
AcDbEntity
 67
     1
  8
0
100
AcDbBlockEnd
  0
BLOCK
  5
24
330
23
100
AcDbEntity
  8
0
100
AcDbBlockBegin
  2
*Paper_Space0
 70
     0
 10
0.0
 20
0.0
 30
0.0
  3
*Paper_Space0
  1

  0
ENDBLK
  5
25
330
23
100
AcDbEntity
  8
0
100
AcDbBlockEnd
  0
BLOCK
  5
141
330
137
100
AcDbEntity
  8
0
100
AcDbBlockBegin
  2
*D1
 70
     1
 10
0.0
 20
0.0
 30
0.0
  3
*D1
  1

  0
LINE
  5
138
330
137
100
AcDbEntity
  8
1
  6
Continuous
 62
     2
100
AcDbLine
 10
-47.72500000000001
 20
67.5543082782997
 30
0.0
 11
-38.6199409239343
 21
67.5543082782997
 31
0.0
  0
LINE
  5
139
330
137
100
AcDbEntity
  8
1
  6
Continuous
 62
     2
100
AcDbLine
 10
-49.27500000000002
 20
67.5543082782997
 30
0.0
 11
-47.72500000000001
 21
67.5543082782997
 31
0.0
  0
LINE
  5
13A
330
137
100
AcDbEntity
  8
1
  6
Continuous
 62
     2
100
AcDbLine
 10
-52.27500000000002
 20
67.5543082782997
 30
0.0
 11
-49.27500000000002
 21
67.5543082782997
 31
0.0
  0
LINE
  5
13B
330
137
100
AcDbEntity
  8
1
  6
Continuous
 62
     2
100
AcDbLine
 10
-47.72500000000001
 20
75.53853543763601
 30
0.0
 11
-47.72500000000001
 21
67.0543082782997
 31
0.0
  0
LINE
  5
13C
330
137
100
AcDbEntity
  8
1
  6
Continuous
 62
     2
100
AcDbLine
 10
-49.27500000000002
 20
75.53853543763601
 30
0.0
 11
-49.27500000000002
 21
67.0543082782997
 31
0.0
  0
SOLID
  5
13D
330
137
100
AcDbEntity
  8
1
 62
     2
100
AcDbTrace
 10
-50.77500000000002
 20
67.3568295319186
 30
0.0
 11
-50.77500000000002
 21
67.7517870246808
 31
0.0
 12
-49.27500000000002
 22
67.5543082782997
 32
0.0
 13
-49.27500000000002
 23
67.5543082782997
 33
0.0
  0
SOLID
  5
13E
330
137
100
AcDbEntity
  8
1
 62
     2
100
AcDbTrace
 10
-46.22500000000001
 20
67.7517870246808
 30
0.0
 11
-46.22500000000001
 21
67.3568295319186
 31
0.0
 12
-47.72500000000001
 22
67.5543082782997
 32
0.0
 13
-47.72500000000001
 23
67.5543082782997
 33
0.0
  0
MTEXT
  5
140
330
137
100
AcDbEntity
  8
1
 62
     4
100
AcDbMText
 10
-43.52494092393069
 20
68.70430529669557
 30
0.0
 40
1.5
 41
0.0
 71
     7
 72
     1
  1
\C4;\U+00f8\C4;1,55
  7
CONVERTER_13
 11
0.9999999999970619
 21
2.424068405545306E-6
 31
0.0
 73
     1
 44
0.60024009603842
  0
ENDBLK
  5
142
330
137
100
AcDbEntity
  8
0
100
AcDbBlockEnd
  0
BLOCK
  5
14F
330
145
100
AcDbEntity
  8
0
100
AcDbBlockBegin
  2
*D2
 70
     1
 10
0.0
 20
0.0
 30
0.0
  3
*D2
  1

  0
LINE
  5
146
330
145
100
AcDbEntity
  8
1
  6
Continuous
 62
     2
100
AcDbLine
 10
-50.79999999999997
 20
61.68415589396399
 30
0.0
 11
-46.20000000000001
 21
61.68415589396399
 31
0.0
  0
LINE
  5
147
330
145
100
AcDbEntity
  8
1
  6
Continuous
 62
     2
100
AcDbLine
 10
-46.20000000000001
 20
61.68415589396399
 30
0.0
 11
-38.6585345436532
 21
61.68415589396399
 31
0.0
  0
LINE
  5
148
330
145
100
AcDbEntity
  8
1
  6
Continuous
 62
     2
100
AcDbLine
 10
-50.79999999999997
 20
72.53853543763601
 30
0.0
 11
-50.79999999999997
 21
68.7720217232971
 31
0.0
  0
LINE
  5
149
330
145
100
AcDbEntity
  8
1
  6
Continuous
 62
     2
100
AcDbLine
 10
-50.79999999999997
 20
66.1809324219525
 30
0.0
 11
-50.79999999999997
 21
61.18415589396399
 31
0.0
  0
LINE
  5
14A
330
145
100
AcDbEntity
  8
1
  6
Continuous
 62
     2
100
AcDbLine
 10
-46.20000000000001
 20
72.53853543763601
 30
0.0
 11
-46.20000000000001
 21
68.8125074936306
 31
0.0
  0
LINE
  5
14B
330
145
100
AcDbEntity
  8
1
  6
Continuous
 62
     2
100
AcDbLine
 10
-46.20000000000001
 20
66.2619039626195
 30
0.0
 11
-46.20000000000001
 21
61.18415589396399
 31
0.0
  0
SOLID
  5
14C
330
145
100
AcDbEntity
  8
1
 62
     2
100
AcDbTrace
 10
-49.29999999999997
 20
61.88163464034508
 30
0.0
 11
-49.29999999999997
 21
61.4866771475829
 31
0.0
 12
-50.79999999999997
 22
61.68415589396399
 32
0.0
 13
-50.79999999999997
 23
61.68415589396399
 33
0.0
  0
SOLID
  5
14D
330
145
100
AcDbEntity
  8
1
 62
     2
100
AcDbTrace
 10
-47.70000000000001
 20
61.4866771475829
 30
0.0
 11
-47.70000000000001
 21
61.88163464034508
 31
0.0
 12
-46.20000000000001
 22
61.68415589396399
 32
0.0
 13
-46.20000000000001
 23
61.68415589396399
 33
0.0
  0
MTEXT
  5
14E
330
145
100
AcDbEntity
  8
1
 62
     4
100
AcDbMText
 10
-42.66353454364959
 20
62.83415291235985
 30
0.0
 40
1.5
 41
0.0
 71
     7
 72
     1
  1
\C4;\U+00f8\C4;4,6
  7
CONVERTER_13
 11
0.9999999999970619
 21
2.424068405545306E-6
 31
0.0
 73
     1
 44
0.60024009603842
  0
ENDBLK
  5
150
330
145
100
AcDbEntity
  8
0
100
AcDbBlockEnd
  0
BLOCK
  5
15A
330
153
100
AcDbEntity
  8
0
100
AcDbBlockBegin
  2
*D3
 70
     1
 10
0.0
 20
0.0
 30
0.0
  3
*D3
  1

  0
LINE
  5
154
330
153
100
AcDbEntity
  8
1
  6
Continuous
 62
     2
100
AcDbLine
 10
-51.50000000000001
 20
103.127668744717
 30
0.0
 11
-45.49999999999999
 21
103.127668744717
 31
0.0
  0
LINE
  5
155
330
153
100
AcDbEntity
  8
1
  6
Continuous
 62
     2
100
AcDbLine
 10
-51.50000000000001
 20
98.73853343763604
 30
0.0
 11
-51.50000000000001
 21
103.627668744717
 31
0.0
  0
LINE
  5
156
330
153
100
AcDbEntity
  8
1
  6
Continuous
 62
     2
100
AcDbLine
 10
-45.49999999999999
 20
98.73853343763604
 30
0.0
 11
-45.49999999999999
 21
103.627668744717
 31
0.0
  0
SOLID
  5
157
330
153
100
AcDbEntity
  8
1
 62
     2
100
AcDbTrace
 10
-50.00000000000001
 20
103.3251474910981
 30
0.0
 11
-50.00000000000001
 21
102.9301899983359
 31
0.0
 12
-51.50000000000001
 22
103.127668744717
 32
0.0
 13
-51.50000000000001
 23
103.127668744717
 33
0.0
  0
SOLID
  5
158
330
153
100
AcDbEntity
  8
1
 62
     2
100
AcDbTrace
 10
-46.99999999999999
 20
102.9301899983359
 30
0.0
 11
-46.99999999999999
 21
103.3251474910981
 31
0.0
 12
-45.49999999999999
 22
103.127668744717
 32
0.0
 13
-45.49999999999999
 23
103.127668744717
 33
0.0
  0
MTEXT
  5
159
330
153
100
AcDbEntity
  8
1
 62
     4
100
AcDbMText
 10
-49.35499999999639
 20
104.1276657631129
 30
0.0
 40
1.5
 41
0.0
 71
     7
 72
     1
  1
\C4;\U+00f8\C4;6
  7
CONVERTER_13
 11
0.9999999999970619
 21
2.424068405545306E-6
 31
0.0
 73
     1
 44
0.60024009603842
  0
ENDBLK
  5
15B
330
153
100
AcDbEntity
  8
0
100
AcDbBlockEnd
  0
BLOCK
  5
166
330
15E
100
AcDbEntity
  8
0
100
AcDbBlockBegin
  2
*D4
 70
     1
 10
0.0
 20
0.0
 30
0.0
  3
*D4
  1

  0
LINE
  5
15F
330
15E
100
AcDbEntity
  8
1
  6
Continuous
 62
     2
100
AcDbLine
 10
-37.3947724581849
 20
98.988535437636
 30
0.0
 11
-37.3947724581849
 21
87.71353543763603
 31
0.0
  0
LINE
  5
160
330
15E
100
AcDbEntity
  8
1
  6
Continuous
 62
     2
100
AcDbLine
 10
-37.3947724581849
 20
84.06353543763602
 30
0.0
 11
-37.3947724581849
 21
72.78853543763601
 31
0.0
  0
LINE
  5
161
330
15E
100
AcDbEntity
  8
1
  6
Continuous
 62
     2
100
AcDbLine
 10
-45.74999999999999
 20
98.988535437636
 30
0.0
 11
-36.8947724581849
 21
98.988535437636
 31
0.0
  0
LINE
  5
162
330
15E
100
AcDbEntity
  8
1
  6
Continuous
 62
     2
100
AcDbLine
 10
-45.95000000000001
 20
72.78853543763601
 30
0.0
 11
-36.8947724581849
 21
72.78853543763601
 31
0.0
  0
SOLID
  5
163
330
15E
100
AcDbEntity
  8
1
 62
     2
100
AcDbTrace
 10
-37.19729371180381
 20
97.488535437636
 30
0.0
 11
-37.592251204566
 21
97.488535437636
 31
0.0
 12
-37.3947724581849
 22
98.988535437636
 32
0.0
 13
-37.3947724581849
 23
98.988535437636
 33
0.0
  0
SOLID
  5
164
330
15E
100
AcDbEntity
  8
1
 62
     2
100
AcDbTrace
 10
-37.592251204566
 20
74.28853543763601
 30
0.0
 11
-37.19729371180381
 21
74.28853543763601
 31
0.0
 12
-37.3947724581849
 22
72.78853543763601
 32
0.0
 13
-37.3947724581849
 23
72.78853543763601
 33
0.0
  0
MTEXT
  5
165
330
15E
100
AcDbEntity
  8
1
 62
     4
100
AcDbMText
 10
-39.4572724581849
 20
85.21353543763603
 30
0.0
 40
1.5
 41
0.0
 71
     7
 72
     1
  1
26,2
  7
CONVERTER_13
 11
0.9999999999970619
 21
2.424068405545306E-6
 31
0.0
 73
     1
 44
0.60024009603842
  0
ENDBLK
  5
167
330
15E
100
AcDbEntity
  8
0
100
AcDbBlockEnd
  0
BLOCK
  5
172
330
16A
100
AcDbEntity
  8
0
100
AcDbBlockBegin
  2
*D5
 70
     1
 10
0.0
 20
0.0
 30
0.0
  3
*D5
  1

  0
LINE
  5
16B
330
16A
100
AcDbEntity
  8
1
  6
Continuous
 62
     2
100
AcDbLine
 10
-57.6581600752564
 20
82.58853543763603
 30
0.0
 11
-57.6581600752564
 21
79.51353543763602
 31
0.0
  0
LINE
  5
16C
330
16A
100
AcDbEntity
  8
1
  6
Continuous
 62
     2
100
AcDbLine
 10
-57.6581600752564
 20
75.86353543763602
 30
0.0
 11
-57.6581600752564
 21
72.78853543763601
 31
0.0
  0
LINE
  5
16D
330
16A
100
AcDbEntity
  8
1
  6
Continuous
 62
     2
100
AcDbLine
 10
-51.40000000000001
 20
82.58853543763603
 30
0.0
 11
-58.1581600752564
 21
82.58853543763603
 31
0.0
  0
LINE
  5
16E
330
16A
100
AcDbEntity
  8
1
  6
Continuous
 62
     2
100
AcDbLine
 10
-51.04999999999997
 20
72.78853543763601
 30
0.0
 11
-58.1581600752564
 21
72.78853543763601
 31
0.0
  0
SOLID
  5
16F
330
16A
100
AcDbEntity
  8
1
 62
     2
100
AcDbTrace
 10
-57.4606813288753
 20
81.08853543763603
 30
0.0
 11
-57.85563882163749
 21
81.08853543763603
 31
0.0
 12
-57.6581600752564
 22
82.58853543763603
 32
0.0
 13
-57.6581600752564
 23
82.58853543763603
 33
0.0
  0
SOLID
  5
170
330
16A
100
AcDbEntity
  8
1
 62
     2
100
AcDbTrace
 10
-57.85563882163749
 20
74.28853543763601
 30
0.0
 11
-57.4606813288753
 21
74.28853543763601
 31
0.0
 12
-57.6581600752564
 22
72.78853543763601
 32
0.0
 13
-57.6581600752564
 23
72.78853543763601
 33
0.0
  0
MTEXT
  5
171
330
16A
100
AcDbEntity
  8
1
 62
     4
100
AcDbMText
 10
-59.0456600752564
 20
77.01353543763602
 30
0.0
 40
1.5
 41
0.0
 71
     7
 72
     1
  1
9,8
  7
CONVERTER_13
 11
0.9999999999970619
 21
2.424068405545306E-6
 31
0.0
 73
     1
 44
0.60024009603842
  0
ENDBLK
  5
173
330
16A
100
AcDbEntity
  8
0
100
AcDbBlockEnd
  0
BLOCK
  5
17E
330
176
100
AcDbEntity
  8
0
100
AcDbBlockBegin
  2
*D6
 70
     1
 10
0.0
 20
0.0
 30
0.0
  3
*D6
  1

  0
LINE
  5
177
330
176
100
AcDbEntity
  8
1
  6
Continuous
 62
     2
100
AcDbLine
 10
-73.4192258818286
 20
121.1180281613772
 30
0.0
 11
-73.4192258818286
 21
116.8680281613772
 31
0.0
  0
LINE
  5
178
330
176
100
AcDbEntity
  8
1
  6
Continuous
 62
     2
100
AcDbLine
 10
-73.4192258818286
 20
113.3680281613772
 30
0.0
 11
-73.4192258818286
 21
109.1180281613772
 31
0.0
  0
LINE
  5
179
330
176
100
AcDbEntity
  8
1
  6
Continuous
 62
     2
100
AcDbLine
 10
-79.27329174230317
 20
121.1180281613772
 30
0.0
 11
-72.9192258818286
 21
121.1180281613772
 31
0.0
  0
LINE
  5
17A
330
176
100
AcDbEntity
  8
1
  6
Continuous
 62
     2
100
AcDbLine
 10
-79.87329174230318
 20
109.1180281613772
 30
0.0
 11
-72.9192258818286
 21
109.1180281613772
 31
0.0
  0
SOLID
  5
17B
330
176
100
AcDbEntity
  8
1
 62
     2
100
AcDbTrace
 10
-73.2217471354475
 20
119.6180281613772
 30
0.0
 11
-73.61670462820969
 21
119.6180281613772
 31
0.0
 12
-73.4192258818286
 22
121.1180281613772
 32
0.0
 13
-73.4192258818286
 23
121.1180281613772
 33
0.0
  0
SOLID
  5
17C
330
176
100
AcDbEntity
  8
1
 62
     2
100
AcDbTrace
 10
-73.61670462820969
 20
110.6180281613772
 30
0.0
 11
-73.2217471354475
 21
110.6180281613772
 31
0.0
 12
-73.4192258818286
 22
109.1180281613772
 32
0.0
 13
-73.4192258818286
 23
109.1180281613772
 33
0.0
  0
MTEXT
  5
17D
330
176
100
AcDbEntity
  8
1
 62
     4
100
AcDbMText
 10
-77.23297588181414
 20
114.3680162349606
 30
0.0
 40
1.5
 41
0.0
 71
     7
 72
     1
  1
\C4;min.\C4;12
  7
CONVERTER_13
 11
0.9999999999970619
 21
2.424068405545306E-6
 31
0.0
 73
     1
 44
0.60024009603842
  0
ENDBLK
  5
17F
330
176
100
AcDbEntity
  8
0
100
AcDbBlockEnd
  0
ENDSEC
  0
SECTION
  2
ENTITIES
  0
LINE
  5
47
330
1F
100
AcDbEntity
  8
1
  6
Continuous
 62
     7
100
AcDbLine
 10
-47.72500000000001
 20
78.86144624452707
 30
0.0
 11
-47.72500000000001
 21
75.78853543763601
 31
0.0
  0
LINE
  5
48
330
1F
100
AcDbEntity
  8
1
  6
Continuous
 62
     7
100
AcDbLine
 10
-49.27500000000002
 20
78.88452036182181
 30
0.0
 11
-49.27500000000002
 21
75.78853543763601
 31
0.0
  0
LINE
  5
49
330
1F
100
AcDbEntity
  8
0
  6
Continuous
 62
     7
100
AcDbLine
 10
-18.53720499140754
 20
124.3928142584221
 30
0.0
 11
-19.62913399994596
 21
124.6951352316885
 31
0.0
  0
LINE
  5
4A
330
1F
100
AcDbEntity
  8
0
  6
Continuous
 62
     7
100
AcDbLine
 10
-13.94134371782806
 20
127.1978855127662
 30
0.0
 11
-11.11291659308188
 21
125.7836719503931
 31
0.0
  0
LINE
  5
4B
330
1F
100
AcDbEntity
  8
0
  6
Continuous
 62
     7
100
AcDbLine
 10
-31.62043617245304
 20
130.1118515997043
 30
0.0
 11
-22.4634047703008
 21
125.5333358986282
 31
0.0
  0
LINE
  5
4C
330
1F
100
AcDbEntity
  8
0
  6
Continuous
 62
     7
100
AcDbLine
 10
-30.98589509612702
 20
134.9164605872636
 30
0.0
 11
-30.70304927239357
 21
135.1285931872914
 31
0.0
  0
LINE
  5
4D
330
1F
100
AcDbEntity
  8
0
  6
Continuous
 62
     7
100
AcDbLine
 10
-21.77081254428879
 20
125.8578601788721
 30
0.0
 11
-20.52787273781348
 21
125.2363902756345
 31
0.0
  0
LINE
  5
4E
330
1F
100
AcDbEntity
  8
0
  6
Continuous
 62
     7
100
AcDbLine
 10
-22.42804943124148
 20
125.5156582290985
 30
0.0
 11
-22.03914070158886
 21
125.3212038642722
 31
0.0
  0
LINE
  5
4F
330
1F
100
AcDbEntity
  8
0
  6
Continuous
 62
     7
100
AcDbLine
 10
-20.74596774080436
 20
125.6610856046576
 30
0.0
 11
-20.35705901115176
 21
125.4666312398313
 31
0.0
  0
LINE
  5
50
330
1F
100
AcDbEntity
  8
0
  6
Continuous
 62
     7
100
AcDbLine
 10
-20.74596774080436
 20
127.0467262507127
 30
0.0
 11
-20.35705901115176
 21
126.8522718858864
 31
0.0
  0
LINE
  5
51
330
1F
100
AcDbEntity
  8
0
  6
Continuous
 62
     7
100
AcDbLine
 10
-20.74596774080436
 20
125.6610856046576
 30
0.0
 11
-20.67115431835993
 21
125.6984923158799
 31
0.0
  0
LINE
  5
52
330
1F
100
AcDbEntity
  8
0
  6
Continuous
 62
     7
100
AcDbLine
 10
-20.17172235351269
 20
125.9482082983035
 30
0.0
 11
-20.67115431835993
 21
125.6984923158799
 31
0.0
  0
LINE
  5
53
330
1F
100
AcDbEntity
  8
0
  6
Continuous
 62
     7
100
AcDbLine
 10
-19.74476785824172
 20
130.882221375098
 30
0.0
 11
-19.35585912858912
 21
130.6877670102717
 31
0.0
  0
LINE
  5
54
330
1F
100
AcDbEntity
  8
0
  6
Continuous
 62
     7
100
AcDbLine
 10
-15.99852625712786
 20
123.0835204341666
 30
0.0
 11
-13.17009913238167
 21
121.6693068717935
 31
0.0
  0
LINE
  5
55
330
1F
100
AcDbEntity
  8
0
  6
Continuous
 62
     7
100
AcDbLine
 10
-16.27479609574365
 20
128.364611701724
 30
0.0
 11
-14.08276507406539
 21
127.2685961908849
 31
0.0
  0
LINE
  5
56
330
1F
100
AcDbEntity
  8
0
  6
Continuous
 62
     7
100
AcDbLine
 10
-32.40011714370516
 20
132.0880164921073
 30
0.0
 11
-32.40011572948734
 21
131.7344602731039
 31
0.0
  0
LINE
  5
57
330
1F
100
AcDbEntity
  8
0
  6
Continuous
 62
     7
100
AcDbLine
 10
-16.51198601780027
 20
128.4432522056366
 30
0.0
 11
-17.40900020153646
 21
129.1354028285076
 31
0.0
  0
LINE
  5
58
330
1F
100
AcDbEntity
  8
0
  6
Continuous
 62
     7
100
AcDbLine
 10
-17.95312032961004
 20
129.4273806164072
 30
0.0
 11
-17.56421159995745
 21
129.2329262515809
 31
0.0
  0
LINE
  5
59
330
1F
100
AcDbEntity
  8
0
  6
Continuous
 62
     7
100
AcDbLine
 10
-19.62418728588909
 20
130.1511106956715
 30
0.0
 11
-18.38124747941372
 21
129.529640792434
 31
0.0
  0
LINE
  5
5A
330
1F
100
AcDbEntity
  8
0
  6
Continuous
 62
     7
100
AcDbLine
 10
-20.17172235351269
 20
125.9482082983035
 30
0.0
 11
-18.9235726855818
 21
125.324133464338
 31
0.0
  0
LINE
  5
5B
330
1F
100
AcDbEntity
  8
0
  6
Continuous
 62
     7
100
AcDbLine
 10
-20.18918830710985
 20
124.9552446614076
 30
0.0
 11
-19.80027957745723
 21
124.7607902965813
 31
0.0
  0
LINE
  5
5C
330
1F
100
AcDbEntity
  8
0
  6
Continuous
 62
     7
100
AcDbLine
 10
-18.33197863504344
 20
124.2502466231244
 30
0.0
 11
-16.13994761336518
 21
123.1542311122853
 31
0.0
  0
LINE
  5
5D
330
1F
100
AcDbEntity
  8
0
  6
Continuous
 62
     7
100
AcDbLine
 10
-28.93715459945329
 20
135.4784147457038
 30
0.0
 11
-19.78012319730105
 21
130.8998990446277
 31
0.0
  0
LINE
  5
5E
102
{ACAD_REACTORS
330
186
102
}
330
1F
100
AcDbEntity
  8
0
  6
Continuous
 62
     7
100
AcDbLine
 10
-47.24999999999999
 20
76.28853543763601
 30
0.0
 11
-47.24999999999999
 21
78.8821222761341
 31
0.0
  0
LINE
  5
5F
330
1F
100
AcDbEntity
  8
1
  6
Continuous
 62
     7
100
AcDbLine
 10
-47.72500000000001
 20
75.78853543763601
 30
0.0
 11
-47.24999999999999
 21
76.28853543763601
 31
0.0
  0
LINE
  5
60
330
1F
100
AcDbEntity
  8
1
  6
Continuous
 62
     7
100
AcDbLine
 10
-49.27500000000002
 20
75.78853543763601
 30
0.0
 11
-47.72500000000001
 21
75.78853543763601
 31
0.0
  0
LINE
  5
61
102
{ACAD_REACTORS
330
187
102
}
330
1F
100
AcDbEntity
  8
0
  6
Continuous
 62
     7
100
AcDbLine
 10
-49.74999999999999
 20
76.28853543763601
 30
0.0
 11
-49.74999999999999
 21
78.9194359540538
 31
0.0
  0
LINE
  5
62
330
1F
100
AcDbEntity
  8
1
  6
Continuous
 62
     7
100
AcDbLine
 10
-49.74999999999999
 20
76.28853543763601
 30
0.0
 11
-49.27500000000002
 21
75.78853543763601
 31
0.0
  0
LINE
  5
63
330
1F
100
AcDbEntity
  8
0
  6
Continuous
 62
     7
100
AcDbLine
 10
-51.50000000000001
 20
90.3434903900548
 30
0.0
 11
-51.50000000000001
 21
85.58853543763601
 31
0.0
  0
LINE
  5
64
330
1F
100
AcDbEntity
  8
1
  6
Continuous
 62
     7
100
AcDbLine
 10
-50.0
 20
93.85609311015484
 30
0.0
 11
-50.0
 21
93.35984802288428
 31
0.0
  0
LINE
  5
65
330
1F
100
AcDbEntity
  8
1
  6
Continuous
 62
     7
100
AcDbLine
 10
-50.0
 20
92.85609311015484
 30
0.0
 11
-50.0
 21
92.35984802288428
 31
0.0
  0
LINE
  5
66
330
1F
100
AcDbEntity
  8
1
  6
Continuous
 62
     7
100
AcDbLine
 10
-50.0
 20
91.85609311015484
 30
0.0
 11
-50.0
 21
91.35984802288428
 31
0.0
  0
LINE
  5
67
330
1F
100
AcDbEntity
  8
1
  6
Continuous
 62
     7
100
AcDbLine
 10
-50.0
 20
90.85609311015484
 30
0.0
 11
-50.0
 21
90.43132470599214
 31
0.0
  0
LINE
  5
68
330
1F
100
AcDbEntity
  8
1
  6
Continuous
 62
     7
100
AcDbLine
 10
-50.0
 20
94.85609311015484
 30
0.0
 11
-50.0
 21
94.35984802288428
 31
0.0
  0
LINE
  5
69
330
1F
100
AcDbEntity
  8
1
  6
Continuous
 62
     7
100
AcDbLine
 10
-50.41953266414873
 20
94.80458097620291
 30
0.0
 11
-48.86730810676858
 21
94.99517018690355
 31
0.0
  0
LINE
  5
6A
330
1F
100
AcDbEntity
  8
1
  6
Continuous
 62
     7
100
AcDbLine
 10
-48.5
 20
90.54402486423864
 30
0.0
 11
-49.67532352087282
 21
90.39971328180941
 31
0.0
  0
LINE
  5
6B
330
1F
100
AcDbEntity
  8
1
  6
Continuous
 62
     7
100
AcDbLine
 10
-48.5
 20
91.54402486423864
 30
0.0
 11
-50.4804673358513
 21
91.30085405202358
 31
0.0
  0
LINE
  5
6C
330
1F
100
AcDbEntity
  8
1
  6
Continuous
 62
     7
100
AcDbLine
 10
-50.41953266414873
 20
90.80458097620291
 30
0.0
 11
-48.5
 21
91.0402699515092
 31
0.0
  0
LINE
  5
6D
330
1F
100
AcDbEntity
  8
1
  6
Continuous
 62
     7
100
AcDbLine
 10
-50.41953266414873
 20
91.80458097620291
 30
0.0
 11
-48.5
 21
92.0402699515092
 31
0.0
  0
LINE
  5
6E
330
1F
100
AcDbEntity
  8
1
  6
Continuous
 62
     7
100
AcDbLine
 10
-48.5
 20
92.54402486423864
 30
0.0
 11
-50.4804673358513
 21
92.30085405202358
 31
0.0
  0
LINE
  5
6F
330
1F
100
AcDbEntity
  8
1
  6
Continuous
 62
     7
100
AcDbLine
 10
-50.41953266414873
 20
92.80458097620291
 30
0.0
 11
-48.5
 21
93.0402699515092
 31
0.0
  0
LINE
  5
70
330
1F
100
AcDbEntity
  8
1
  6
Continuous
 62
     7
100
AcDbLine
 10
-48.5
 20
93.54402486423864
 30
0.0
 11
-50.4804673358513
 21
93.30085405202358
 31
0.0
  0
LINE
  5
71
330
1F
100
AcDbEntity
  8
1
  6
Continuous
 62
     7
100
AcDbLine
 10
-50.41953266414873
 20
93.80458097620291
 30
0.0
 11
-48.5
 21
94.0402699515092
 31
0.0
  0
LINE
  5
72
330
1F
100
AcDbEntity
  8
1
  6
Continuous
 62
     7
100
AcDbLine
 10
-48.5
 20
94.54402486423864
 30
0.0
 11
-50.4804673358513
 21
94.30085405202358
 31
0.0
  0
LINE
  5
73
330
1F
100
AcDbEntity
  8
1
  6
Continuous
 62
     7
100
AcDbLine
 10
-51.00000000000001
 20
95.1697519085358
 30
0.0
 11
-51.00000000000001
 21
90.41479695611702
 31
0.0
  0
LINE
  5
74
330
1F
100
AcDbEntity
  8
0
  6
Continuous
 62
     7
100
AcDbLine
 10
-51.50000000000001
 20
95.09844534247358
 30
0.0
 11
-51.50000000000001
 21
90.3434903900548
 31
0.0
  0
LINE
  5
75
330
1F
100
AcDbEntity
  8
1
  6
Continuous
 62
     7
100
AcDbLine
 10
-48.5
 20
94.88380172463728
 30
0.0
 11
-48.5
 21
90.12884677221851
 31
0.0
  0
LINE
  5
76
330
1F
100
AcDbEntity
  8
1
  6
Continuous
 62
     7
100
AcDbLine
 10
-94.5
 20
10.0
 30
0.0
 11
-2.5
 21
10.0
 31
0.0
  0
LINE
  5
77
330
1F
100
AcDbEntity
  8
1
  6
Continuous
 62
     7
100
AcDbLine
 10
-94.5
 20
2.49999999999994
 30
0.0
 11
-2.5
 21
2.49999999999994
 31
0.0
  0
LINE
  5
78
330
1F
100
AcDbEntity
  8
1
  6
Continuous
 62
     7
100
AcDbLine
 10
-82.0
 20
17.5
 30
0.0
 11
-82.0
 21
20.0
 31
0.0
  0
LINE
  5
79
330
1F
100
AcDbEntity
  8
1
  6
Continuous
 62
     7
100
AcDbLine
 10
-91.0
 20
17.5
 30
0.0
 11
-91.0
 21
20.0
 31
0.0
  0
LINE
  5
7A
330
1F
100
AcDbEntity
  8
1
  6
Continuous
 62
     7
100
AcDbLine
 10
-94.5
 20
20.0
 30
0.0
 11
-2.5
 21
20.0
 31
0.0
  0
LINE
  5
7B
330
1F
100
AcDbEntity
  8
1
  6
Continuous
 62
     7
100
AcDbLine
 10
-82.0
 20
15.0
 30
0.0
 11
-82.0
 21
17.5
 31
0.0
  0
LINE
  5
7C
330
1F
100
AcDbEntity
  8
1
  6
Continuous
 62
     7
100
AcDbLine
 10
-91.0
 20
15.0
 30
0.0
 11
-91.0
 21
17.5
 31
0.0
  0
LINE
  5
7D
330
1F
100
AcDbEntity
  8
1
  6
Continuous
 62
     7
100
AcDbLine
 10
-94.5
 20
17.5
 30
0.0
 11
-2.5
 21
17.5
 31
0.0
  0
LINE
  5
7E
330
1F
100
AcDbEntity
  8
1
  6
Continuous
 62
     7
100
AcDbLine
 10
-82.0
 20
12.5
 30
0.0
 11
-82.0
 21
15.0
 31
0.0
  0
LINE
  5
7F
330
1F
100
AcDbEntity
  8
1
  6
Continuous
 62
     7
100
AcDbLine
 10
-91.0
 20
12.5
 30
0.0
 11
-91.0
 21
15.0
 31
0.0
  0
LINE
  5
80
330
1F
100
AcDbEntity
  8
1
  6
Continuous
 62
     7
100
AcDbLine
 10
-94.5
 20
15.0
 30
0.0
 11
-2.5
 21
15.0
 31
0.0
  0
LINE
  5
81
330
1F
100
AcDbEntity
  8
1
  6
Continuous
 62
     7
100
AcDbLine
 10
-82.0
 20
10.0
 30
0.0
 11
-82.0
 21
12.5
 31
0.0
  0
LINE
  5
82
330
1F
100
AcDbEntity
  8
1
  6
Continuous
 62
     7
100
AcDbLine
 10
-91.0
 20
10.0
 30
0.0
 11
-91.0
 21
12.5
 31
0.0
  0
LINE
  5
83
330
1F
100
AcDbEntity
  8
1
  6
Continuous
 62
     7
100
AcDbLine
 10
-94.5
 20
12.5
 30
0.0
 11
-2.5
 21
12.5
 31
0.0
  0
LINE
  5
84
102
{ACAD_REACTORS
330
182
102
}
330
1F
100
AcDbEntity
  8
1
  6
Continuous
 62
     7
100
AcDbLine
 10
-7.07856258004711
 20
5.27900104019017
 30
0.0
 11
-7.74522924671373
 21
4.89438565557487
 31
0.0
  0
LINE
  5
85
102
{ACAD_REACTORS
330
182
102
}
330
1F
100
AcDbEntity
  8
1
  6
Continuous
 62
     7
100
AcDbLine
 10
-7.66184965562865
 20
5.32731826632397
 30
0.0
 11
-7.24513673121027
 21
5.56772956887312
 31
0.0
  0
LINE
  5
86
102
{ACAD_REACTORS
330
182
102
}
330
1F
100
AcDbEntity
  8
1
  6
Continuous
 62
     7
100
AcDbLine
 10
-7.66184965562865
 20
6.08333333333332
 30
0.0
 11
-7.66184965562865
 21
5.32731826632397
 31
0.0
  0
LINE
  5
87
102
{ACAD_REACTORS
330
182
102
}
330
1F
100
AcDbEntity
  8
1
  6
Continuous
 62
     7
100
AcDbLine
 10
-7.16184965562865
 20
6.08333333333332
 30
0.0
 11
-7.66184965562865
 21
6.08333333333332
 31
0.0
  0
LINE
  5
88
102
{ACAD_REACTORS
330
182
102
}
330
1F
100
AcDbEntity
  8
1
  6
Continuous
 62
     7
100
AcDbLine
 10
-7.66184965562865
 20
6.41666666666663
 30
0.0
 11
-7.16184965562865
 21
6.41666666666663
 31
0.0
  0
LINE
  5
89
102
{ACAD_REACTORS
330
182
102
}
330
1F
100
AcDbEntity
  8
1
  6
Continuous
 62
     7
100
AcDbLine
 10
-7.66184965562865
 20
7.17268173367597
 30
0.0
 11
-7.66184965562865
 21
6.41666666666663
 31
0.0
  0
LINE
  5
8A
102
{ACAD_REACTORS
330
182
102
}
330
1F
100
AcDbEntity
  8
1
  6
Continuous
 62
     7
100
AcDbLine
 10
-7.24513673121027
 20
6.93227043112688
 30
0.0
 11
-7.66184965562865
 21
7.17268173367597
 31
0.0
  0
LINE
  5
8B
102
{ACAD_REACTORS
330
182
102
}
330
1F
100
AcDbEntity
  8
1
  6
Continuous
 62
     7
100
AcDbLine
 10
-7.74522924671373
 20
7.60561434442513
 30
0.0
 11
-7.07856258004711
 21
7.22099895980972
 31
0.0
  0
LINE
  5
8C
102
{ACAD_REACTORS
330
183
102
}
330
1F
100
AcDbEntity
  8
1
  6
Continuous
 62
     7
100
AcDbLine
 10
-11.32851632229534
 20
5.42336530453161
 30
0.0
 11
-11.32851632229534
 21
7.07663469546833
 31
0.0
  0
LINE
  5
8D
102
{ACAD_REACTORS
330
183
102
}
330
1F
100
AcDbEntity
  8
1
  6
Continuous
 62
     7
100
AcDbLine
 10
-10.99518298896203
 20
5.51962595863165
 30
0.0
 11
-10.99518298896203
 21
5.42336530453161
 31
0.0
  0
LINE
  5
8E
102
{ACAD_REACTORS
330
183
102
}
330
1F
100
AcDbEntity
  8
1
  6
Continuous
 62
     7
100
AcDbLine
 10
-10.99518298896203
 20
7.07663469546833
 30
0.0
 11
-10.99518298896203
 21
5.51962595863165
 31
0.0
  0
LINE
  5
8F
102
{ACAD_REACTORS
330
184
102
}
330
1F
100
AcDbEntity
  8
1
  6
Continuous
 62
     7
100
AcDbLine
 10
-9.41180339787695
 20
4.2213087324979
 30
0.0
 11
-10.49509047345851
 21
4.84628204533345
 31
0.0
  0
LINE
  5
90
102
{ACAD_REACTORS
330
184
102
}
330
1F
100
AcDbEntity
  8
1
  6
Continuous
 62
     7
100
AcDbLine
 10
-10.32851632229534
 20
5.13501057401635
 30
0.0
 11
-9.24522924671374
 21
4.5100372611808
 31
0.0
  0
LINE
  5
91
102
{ACAD_REACTORS
330
184
102
}
330
1F
100
AcDbEntity
  8
1
  6
Continuous
 62
     7
100
AcDbLine
 10
-10.32851632229534
 20
7.46125008008369
 30
0.0
 11
-10.32851632229534
 21
5.13501057401635
 31
0.0
  0
LINE
  5
92
102
{ACAD_REACTORS
330
184
102
}
330
1F
100
AcDbEntity
  8
1
  6
Continuous
 62
     7
100
AcDbLine
 10
-10.66184965562866
 20
5.13501057401629
 30
0.0
 11
-10.66184965562866
 21
7.46125008008369
 31
0.0
  0
LINE
  5
93
102
{ACAD_REACTORS
330
185
102
}
330
1F
100
AcDbEntity
  8
1
  6
Continuous
 62
     7
100
AcDbLine
 10
-8.57573316410702
 20
7.93185020913614
 30
0.0
 11
-9.16184965562866
 21
6.91666666666663
 31
0.0
  0
LINE
  5
94
102
{ACAD_REACTORS
330
185
102
}
330
1F
100
AcDbEntity
  8
1
  6
Continuous
 62
     7
100
AcDbLine
 10
-8.32851632229534
 20
4.6541345353009
 30
0.0
 11
-8.32851632229534
 21
7.86560865601728
 31
0.0
  0
LINE
  5
95
102
{ACAD_REACTORS
330
185
102
}
330
1F
100
AcDbEntity
  8
1
  6
Continuous
 62
     7
100
AcDbLine
 10
-8.66184965562866
 20
6.25
 30
0.0
 11
-8.66184965562866
 21
4.6541345353009
 31
0.0
  0
LINE
  5
96
102
{ACAD_REACTORS
330
185
102
}
330
1F
100
AcDbEntity
  8
1
  6
Continuous
 62
     7
100
AcDbLine
 10
-9.66184965562866
 20
5.42379253631645
 30
0.0
 11
-9.66184965562866
 21
6.25
 31
0.0
  0
LINE
  5
97
102
{ACAD_REACTORS
330
185
102
}
330
1F
100
AcDbEntity
  8
1
  6
Continuous
 62
     7
100
AcDbLine
 10
-9.99518298896203
 20
6.25
 30
0.0
 11
-9.99518298896203
 21
5.42379253631645
 31
0.0
  0
LINE
  5
98
102
{ACAD_REACTORS
330
185
102
}
330
1F
100
AcDbEntity
  8
1
  6
Continuous
 62
     7
100
AcDbLine
 10
-9.7479661471503
 20
7.93185020913614
 30
0.0
 11
-9.16184965562866
 21
6.91666666666663
 31
0.0
  0
LINE
  5
99
102
{ACAD_REACTORS
330
185
102
}
330
1F
100
AcDbEntity
  8
1
  6
Continuous
 62
     7
100
AcDbLine
 10
-9.99518298896203
 20
6.25
 30
0.0
 11
-9.99518298896203
 21
7.86560865601728
 31
0.0
  0
LINE
  5
9A
330
1F
100
AcDbEntity
  8
1
  6
Continuous
 62
     7
100
AcDbLine
 10
-9.16184965562866
 20
3.75
 30
0.0
 11
-13.37006729319944
 21
6.17781786782928
 31
0.0
  0
LINE
  5
9B
330
1F
100
AcDbEntity
  8
1
  6
Continuous
 62
     7
100
AcDbLine
 10
-4.95363201805793
 20
6.17781786782928
 30
0.0
 11
-9.16184965562866
 21
3.75
 31
0.0
  0
LINE
  5
9C
330
1F
100
AcDbEntity
  8
1
  6
Continuous
 62
     7
100
AcDbLine
 10
-9.16184965562866
 20
8.75
 30
0.0
 11
-4.95363201805793
 21
6.32218213217067
 31
0.0
  0
LINE
  5
9D
330
1F
100
AcDbEntity
  8
1
  6
Continuous
 62
     7
100
AcDbLine
 10
-13.37006729319944
 20
6.32218213217067
 30
0.0
 11
-9.16184965562866
 21
8.75
 31
0.0
  0
LINE
  5
9E
102
{ACAD_REACTORS
330
185
102
}
330
1F
100
AcDbEntity
  8
1
  6
Continuous
 62
     7
100
AcDbLine
 10
-9.66184965562866
 20
7.11602540378442
 30
0.0
 11
-9.66184965562866
 21
6.25
 31
0.0
  0
LINE
  5
9F
102
{ACAD_REACTORS
330
185
102
}
330
1F
100
AcDbEntity
  8
1
  6
Continuous
 62
     7
100
AcDbLine
 10
-9.2340184392774
 20
6.375
 30
0.0
 11
-9.66184965562866
 21
7.11602540378442
 31
0.0
  0
LINE
  5
A0
102
{ACAD_REACTORS
330
185
102
}
330
1F
100
AcDbEntity
  8
1
  6
Continuous
 62
     7
100
AcDbLine
 10
-8.66184965562866
 20
7.11602540378442
 30
0.0
 11
-9.08968087197997
 21
6.375
 31
0.0
  0
LINE
  5
A1
102
{ACAD_REACTORS
330
185
102
}
330
1F
100
AcDbEntity
  8
1
  6
Continuous
 62
     7
100
AcDbLine
 10
-8.66184965562866
 20
6.25
 30
0.0
 11
-8.66184965562866
 21
7.11602540378442
 31
0.0
  0
LINE
  5
A2
102
{ACAD_REACTORS
330
182
102
}
330
1F
100
AcDbEntity
  8
1
  6
Continuous
 62
     7
100
AcDbLine
 10
-7.99518298896197
 20
5.03874991991631
 30
0.0
 11
-7.99518298896197
 21
7.46125008008369
 31
0.0
  0
LINE
  5
A3
330
1F
100
AcDbEntity
  8
1
  6
Continuous
 62
     7
100
AcDbLine
 10
-94.5
 20
146.0000000000001
 30
0.0
 11
-94.5
 21
2.49999999999994
 31
0.0
  0
LINE
  5
A4
330
1F
100
AcDbEntity
  8
1
  6
Continuous
 62
     7
100
AcDbLine
 10
-2.5
 20
146.0000000000001
 30
0.0
 11
-94.5
 21
146.0000000000001
 31
0.0
  0
LINE
  5
A5
330
1F
100
AcDbEntity
  8
1
  6
Continuous
 62
     7
100
AcDbLine
 10
-2.5
 20
2.49999999999994
 30
0.0
 11
-2.5
 21
146.0000000000001
 31
0.0
  0
LINE
  5
A6
330
1F
100
AcDbEntity
  8
1
  6
Continuous
 62
     7
100
AcDbLine
 10
0.0
 20
148.5000000000001
 30
0.0
 11
-105.0000000000001
 21
148.5000000000001
 31
0.0
  0
LINE
  5
A7
330
1F
100
AcDbEntity
  8
1
  6
Continuous
 62
     7
100
AcDbLine
 10
-105.0000000000001
 20
148.5000000000001
 30
0.0
 11
-105.0000000000001
 21
0.0
 31
0.0
  0
LINE
  5
A8
330
1F
100
AcDbEntity
  8
1
  6
Continuous
 62
     7
100
AcDbLine
 10
-105.0000000000001
 20
0.0
 30
0.0
 11
0.0
 21
0.0
 31
0.0
  0
LINE
  5
A9
330
1F
100
AcDbEntity
  8
1
  6
Continuous
 62
     7
100
AcDbLine
 10
0.0
 20
0.0
 30
0.0
 11
0.0
 21
148.5000000000001
 31
0.0
  0
LINE
  5
AA
330
1F
100
AcDbEntity
  8
1
  6
Continuous
 62
     7
100
AcDbLine
 10
-105.0000000000001
 20
74.24999999999996
 30
0.0
 11
-97.50000000000006
 21
74.24999999999996
 31
0.0
  0
LINE
  5
AB
330
1F
100
AcDbEntity
  8
1
  6
Continuous
 62
     7
100
AcDbLine
 10
-94.5
 20
6.25
 30
0.0
 11
-79.5
 21
6.25
 31
0.0
  0
LINE
  5
AC
330
1F
100
AcDbEntity
  8
1
  6
Continuous
 62
     7
100
AcDbLine
 10
-79.5
 20
10.0
 30
0.0
 11
-79.5
 21
2.5
 31
0.0
  0
LINE
  5
AD
330
1F
100
AcDbEntity
  8
1
  6
Continuous
 62
     7
100
AcDbLine
 10
-15.82369931125731
 20
10.0
 30
0.0
 11
-15.82369931125731
 21
2.5
 31
0.0
  0
LINE
  5
AE
330
1F
100
AcDbEntity
  8
1
  6
Continuous
 62
     7
100
AcDbLine
 10
-24.5
 20
10.0
 30
0.0
 11
-24.5
 21
2.5
 31
0.0
  0
LINE
  5
AF
330
1F
100
AcDbEntity
  8
1
  6
Continuous
 62
     7
100
AcDbLine
 10
-94.5
 20
10.0
 30
0.0
 11
-94.5
 21
2.49999999999994
 31
0.0
  0
LINE
  5
B0
330
1F
100
AcDbEntity
  8
0
  6
Continuous
 62
     7
100
AcDbLine
 10
-50.69999999999997
 20
80.08853543763598
 30
0.0
 11
-51.15000000000001
 21
82.03853543763603
 31
0.0
  0
LINE
  5
B1
330
1F
100
AcDbEntity
  8
0
  6
Continuous
 62
     7
100
AcDbLine
 10
-45.49999999999999
 20
98.488533437636
 30
0.0
 11
-45.49999999999999
 21
85.58853543763601
 31
0.0
  0
LINE
  5
B2
330
1F
100
AcDbEntity
  8
0
  6
Continuous
 62
     7
100
AcDbLine
 10
-51.50000000000001
 20
84.98853543763602
 30
0.0
 11
-45.49999999999999
 21
84.98853543763602
 31
0.0
  0
LINE
  5
B3
330
1F
100
AcDbEntity
  8
0
  6
Continuous
 62
     7
100
AcDbLine
 10
-51.50000000000001
 20
85.538535437636
 30
0.0
 11
-51.50000000000001
 21
84.98853543763602
 31
0.0
  0
LINE
  5
B4
330
1F
100
AcDbEntity
  8
0
  6
Continuous
 62
     7
100
AcDbLine
 10
-45.49999999999999
 20
85.538535437636
 30
0.0
 11
-45.49999999999999
 21
84.98853543763602
 31
0.0
  0
LINE
  5
B5
330
1F
100
AcDbEntity
  8
0
  6
Continuous
 62
     7
100
AcDbLine
 10
-51.50000000000001
 20
85.538535437636
 30
0.0
 11
-45.49999999999999
 21
85.538535437636
 31
0.0
  0
LINE
  5
B6
330
1F
100
AcDbEntity
  8
0
  6
Continuous
 62
     7
100
AcDbLine
 10
-51.50000000000001
 20
98.488533437636
 30
0.0
 11
-45.49999999999999
 21
98.488533437636
 31
0.0
  0
LINE
  5
B7
330
1F
100
AcDbEntity
  8
0
  6
Continuous
 62
     7
100
AcDbLine
 10
-51.50000000000001
 20
98.488533437636
 30
0.0
 11
-51.50000000000001
 21
95.09844534247358
 31
0.0
  0
LINE
  5
B8
330
1F
100
AcDbEntity
  8
0
  6
Continuous
 62
     7
100
AcDbLine
 10
-51.50000000000001
 20
85.58853543763601
 30
0.0
 11
-45.49999999999999
 21
85.58853543763601
 31
0.0
  0
LINE
  5
B9
330
1F
100
AcDbEntity
  8
0
  6
Continuous
 62
     7
100
AcDbLine
 10
-51.44999999999997
 20
85.538535437636
 30
0.0
 11
-51.44999999999997
 21
85.58853543763598
 31
0.0
  0
LINE
  5
BA
330
1F
100
AcDbEntity
  8
0
  6
Continuous
 62
     7
100
AcDbLine
 10
-45.55
 20
85.538535437636
 30
0.0
 11
-45.55
 21
85.58853543763598
 31
0.0
  0
LINE
  5
BB
330
1F
100
AcDbEntity
  8
0
  6
Continuous
 62
     7
100
AcDbLine
 10
-46.20000000000001
 20
80.08853543763598
 30
0.0
 11
-50.79999999999997
 21
80.08853543763598
 31
0.0
  0
LINE
  5
BC
330
1F
100
AcDbEntity
  8
0
  6
Continuous
 62
     7
100
AcDbLine
 10
-51.15000000000001
 20
82.03853543763603
 30
0.0
 11
-49.29999999999999
 21
82.03853543763603
 31
0.0
  0
LINE
  5
BD
330
1F
100
AcDbEntity
  8
0
  6
Continuous
 62
     7
100
AcDbLine
 10
-46.3
 20
80.08853543763598
 30
0.0
 11
-45.84999999999999
 21
82.03853543763603
 31
0.0
  0
LINE
  5
BE
330
1F
100
AcDbEntity
  8
0
  6
Continuous
 62
     7
100
AcDbLine
 10
-45.99999999999999
 20
98.988535437636
 30
0.0
 11
-45.49999999999999
 21
98.488533437636
 31
0.0
  0
LINE
  5
BF
330
1F
100
AcDbEntity
  8
0
  6
Continuous
 62
     7
100
AcDbLine
 10
-46.20000000000001
 20
80.08853543763598
 30
0.0
 11
-46.20000000000001
 21
78.9194359540538
 31
0.0
  0
LINE
  5
C0
330
1F
100
AcDbEntity
  8
0
  6
Continuous
 62
     7
100
AcDbLine
 10
-45.84999999999999
 20
82.58853543763603
 30
0.0
 11
-45.84999999999999
 21
82.03853543763603
 31
0.0
  0
LINE
  5
C1
330
1F
100
AcDbEntity
  8
0
  6
Continuous
 62
     7
100
AcDbLine
 10
-51.15000000000001
 20
82.58853543763603
 30
0.0
 11
-45.84999999999999
 21
82.58853543763603
 31
0.0
  0
LINE
  5
C2
330
1F
100
AcDbEntity
  8
0
  6
Continuous
 62
     7
100
AcDbLine
 10
-50.79999999999997
 20
80.08853543763598
 30
0.0
 11
-50.79999999999997
 21
78.9567496319734
 31
0.0
  0
LINE
  5
C3
330
1F
100
AcDbEntity
  8
0
  6
Continuous
 62
     7
100
AcDbLine
 10
-51.15000000000001
 20
82.58853543763603
 30
0.0
 11
-51.15000000000001
 21
82.03853543763603
 31
0.0
  0
LINE
  5
C4
330
1F
100
AcDbEntity
  8
0
  6
Continuous
 62
     7
100
AcDbLine
 10
-47.69999999999999
 20
80.08853543763598
 30
0.0
 11
-47.69999999999999
 21
82.58853543763603
 31
0.0
  0
LINE
  5
C5
330
1F
100
AcDbEntity
  8
0
  6
Continuous
 62
     7
100
AcDbLine
 10
-51.00000000000001
 20
98.988535437636
 30
0.0
 11
-51.50000000000001
 21
98.488533437636
 31
0.0
  0
LINE
  5
C6
102
{ACAD_REACTORS
330
187
102
}
330
1F
100
AcDbEntity
  8
0
  6
Continuous
 62
     7
100
AcDbLine
 10
-50.79999999999997
 20
76.78853543763601
 30
0.0
 11
-50.79999999999997
 21
72.78853543763601
 31
0.0
  0
LINE
  5
C7
330
1F
100
AcDbEntity
  8
0
  6
Continuous
 62
     7
100
AcDbLine
 10
-50.89999999999997
 20
84.98853543763586
 30
0.0
 11
-50.89999999999997
 21
82.58853543763603
 31
0.0
  0
LINE
  5
C8
330
1F
100
AcDbEntity
  8
0
  6
Continuous
 62
     7
100
AcDbLine
 10
-49.29999999999999
 20
82.58853543763603
 30
0.0
 11
-49.29999999999999
 21
80.08853543763598
 31
0.0
  0
LINE
  5
C9
330
1F
100
AcDbEntity
  8
0
  6
Continuous
 62
     7
100
AcDbLine
 10
-51.00000000000001
 20
98.988535437636
 30
0.0
 11
-45.99999999999999
 21
98.988535437636
 31
0.0
  0
LINE
  5
CA
330
1F
100
AcDbEntity
  8
0
  6
Continuous
 62
     7
100
AcDbLine
 10
-46.10000000000001
 20
84.98853543763586
 30
0.0
 11
-46.10000000000001
 21
82.58853543763603
 31
0.0
  0
LINE
  5
CB
330
1F
100
AcDbEntity
  8
0
  6
Continuous
 62
     7
100
AcDbLine
 10
-47.69999999999999
 20
82.03853543763603
 30
0.0
 11
-45.84999999999999
 21
82.03853543763603
 31
0.0
  0
LINE
  5
CC
102
{ACAD_REACTORS
330
187
102
}
330
1F
100
AcDbEntity
  8
0
  6
Continuous
 62
     7
100
AcDbLine
 10
-50.79999999999997
 20
72.78853543763601
 30
0.0
 11
-50.74999999999999
 21
72.78853543763601
 31
0.0
  0
LINE
  5
CD
102
{ACAD_REACTORS
330
186
102
}
330
1F
100
AcDbEntity
  8
0
  6
Continuous
 62
     7
100
AcDbLine
 10
-46.20000000000001
 20
76.78853543763601
 30
0.0
 11
-46.20000000000001
 21
72.78853543763601
 31
0.0
  0
LINE
  5
CE
102
{ACAD_REACTORS
330
187
102
}
330
1F
100
AcDbEntity
  8
0
  6
Continuous
 62
     7
100
AcDbLine
 10
-49.74999999999999
 20
73.78853543763601
 30
0.0
 11
-50.74999999999999
 21
72.78853543763601
 31
0.0
  0
LINE
  5
CF
102
{ACAD_REACTORS
330
187
102
}
330
1F
100
AcDbEntity
  8
0
  6
Continuous
 62
     7
100
AcDbLine
 10
-49.74999999999999
 20
73.78853543763601
 30
0.0
 11
-49.74999999999999
 21
76.28853543763601
 31
0.0
  0
LINE
  5
D0
102
{ACAD_REACTORS
330
187
102
}
330
1F
100
AcDbEntity
  8
0
  6
Continuous
 62
     7
100
AcDbLine
 10
-50.59998999999995
 20
76.78853543763601
 30
0.0
 11
-50.79999999999997
 21
76.78853543763601
 31
0.0
  0
LINE
  5
D1
102
{ACAD_REACTORS
330
187
102
}
330
1F
100
AcDbEntity
  8
0
  6
Continuous
 62
     7
100
AcDbLine
 10
-50.59998999999995
 20
76.78853543763601
 30
0.0
 11
-50.59999000000001
 21
76.98853543763603
 31
0.0
  0
LINE
  5
D2
330
1F
100
AcDbEntity
  8
0
  6
Continuous
 62
     7
100
AcDbLine
 10
-47.24999999999999
 20
73.78853543763601
 30
0.0
 11
-49.74999999999999
 21
73.78853543763601
 31
0.0
  0
LINE
  5
D3
102
{ACAD_REACTORS
330
186
102
}
330
1F
100
AcDbEntity
  8
0
  6
Continuous
 62
     7
100
AcDbLine
 10
-46.20000000000001
 20
76.98853543763603
 30
0.0
 11
-46.40001
 21
76.98853543763603
 31
0.0
  0
LINE
  5
D4
102
{ACAD_REACTORS
330
186
102
}
330
1F
100
AcDbEntity
  8
0
  6
Continuous
 62
     7
100
AcDbLine
 10
-47.24999999999999
 20
73.78853543763601
 30
0.0
 11
-46.24999999999999
 21
72.78853543763601
 31
0.0
  0
LINE
  5
D5
102
{ACAD_REACTORS
330
186
102
}
330
1F
100
AcDbEntity
  8
0
  6
Continuous
 62
     7
100
AcDbLine
 10
-46.20000000000001
 20
76.78853543763601
 30
0.0
 11
-46.40000999999997
 21
76.78853543763601
 31
0.0
  0
LINE
  5
D6
102
{ACAD_REACTORS
330
186
102
}
330
1F
100
AcDbEntity
  8
0
  6
Continuous
 62
     7
100
AcDbLine
 10
-46.40000999999997
 20
76.78853543763601
 30
0.0
 11
-46.40001
 21
76.98853543763603
 31
0.0
  0
LINE
  5
D7
102
{ACAD_REACTORS
330
186
102
}
330
1F
100
AcDbEntity
  8
0
  6
Continuous
 62
     7
100
AcDbLine
 10
-47.24999999999999
 20
73.78853543763601
 30
0.0
 11
-47.24999999999999
 21
76.28853543763601
 31
0.0
  0
LINE
  5
D8
102
{ACAD_REACTORS
330
187
102
}
330
1F
100
AcDbEntity
  8
0
  6
Continuous
 62
     7
100
AcDbLine
 10
-50.59999000000001
 20
76.98853543763603
 30
0.0
 11
-50.79999999999997
 21
76.98853543763603
 31
0.0
  0
LINE
  5
D9
102
{ACAD_REACTORS
330
187
102
}
330
1F
100
AcDbEntity
  8
0
  6
Continuous
 62
     7
100
AcDbLine
 10
-50.79999999999997
 20
78.9567496319734
 30
0.0
 11
-50.79999999999997
 21
76.98853543763603
 31
0.0
  0
LINE
  5
DA
102
{ACAD_REACTORS
330
186
102
}
330
1F
100
AcDbEntity
  8
0
  6
Continuous
 62
     7
100
AcDbLine
 10
-46.20000000000001
 20
78.9194359540538
 30
0.0
 11
-46.20000000000001
 21
76.98853543763603
 31
0.0
  0
LINE
  5
DB
330
1F
100
AcDbEntity
  8
0
  6
Continuous
 62
     7
100
AcDbLine
 10
-50.74999999999999
 20
72.78853543763601
 30
0.0
 11
-46.24999999999999
 21
72.78853543763601
 31
0.0
  0
LINE
  5
DC
102
{ACAD_REACTORS
330
186
102
}
330
1F
100
AcDbEntity
  8
0
  6
Continuous
 62
     7
100
AcDbLine
 10
-46.24999999999999
 20
72.78853543763601
 30
0.0
 11
-46.20000000000001
 21
72.78853543763601
 31
0.0
  0
LINE
  5
DD
102
{ACAD_REACTORS
330
188
102
}
330
1F
100
AcDbEntity
  8
1
  6
Continuous
 62
     7
100
AcDbLine
 10
-79.52329174230319
 20
129.8665483061661
 30
0.0
 11
-81.72329174230316
 21
129.1109927506106
 31
0.0
  0
LINE
  5
DE
330
1F
100
AcDbEntity
  8
1
  6
Continuous
 62
     7
100
AcDbLine
 10
-76.52329174230319
 20
130.8968513364691
 30
0.0
 11
-79.52329174230319
 21
129.8665483061661
 31
0.0
  0
LINE
  5
DF
330
1F
100
AcDbEntity
  8
1
  6
Continuous
 62
     7
100
AcDbLine
 10
-81.72329174230316
 20
129.1109927506106
 30
0.0
 11
-84.72329174230318
 21
128.0806897203075
 31
0.0
  0
LINE
  5
E0
330
1F
100
AcDbEntity
  8
1
  6
Continuous
 62
     7
100
AcDbLine
 10
-80.12329174230318
 20
109.1180281613772
 30
0.0
 11
-81.12329174230318
 21
109.1180281613772
 31
0.0
  0
LINE
  5
E1
102
{ACAD_REACTORS
330
188
102
}
330
1F
100
AcDbEntity
  8
1
  6
Continuous
 62
     7
100
AcDbLine
 10
-79.52329174230317
 20
121.1180281613772
 30
0.0
 11
-81.72329174230318
 21
121.1180281613772
 31
0.0
  0
LINE
  5
E2
102
{ACAD_REACTORS
330
188
102
}
330
1F
100
AcDbEntity
  8
1
  6
Continuous
 62
     7
100
AcDbLine
 10
-79.52329174230317
 20
121.1180281613772
 30
0.0
 11
-79.52329174230319
 21
129.8665483061661
 31
0.0
  0
LINE
  5
E3
102
{ACAD_REACTORS
330
188
102
}
330
1F
100
AcDbEntity
  8
1
  6
Continuous
 62
     7
100
AcDbLine
 10
-81.72329174230318
 20
121.1180281613772
 30
0.0
 11
-81.72329174230316
 21
129.1109927506106
 31
0.0
  0
LINE
  5
E4
330
1F
100
AcDbEntity
  8
1
  6
Continuous
 62
     7
100
AcDbLine
 10
-80.12329174230318
 20
109.1180281613772
 30
0.0
 11
-80.12329174230318
 21
121.1180281613772
 31
0.0
  0
LINE
  5
E5
330
1F
100
AcDbEntity
  8
1
  6
Continuous
 62
     7
100
AcDbLine
 10
-81.12329174230318
 20
109.1180281613772
 30
0.0
 11
-81.12329174230318
 21
121.1180281613772
 31
0.0
  0
ARC
  5
E6
330
1F
100
AcDbEntity
  8
1
  6
Continuous
 62
     7
100
AcDbCircle
 10
-50.45000000000002
 20
95.05271751411327
 30
0.0
 40
0.2500000000000058
100
AcDbArc
 50
145.4188644900936
 51
276.9999999999987
  0
ARC
  5
E7
330
1F
100
AcDbEntity
  8
1
  6
Continuous
 62
     7
100
AcDbCircle
 10
-50.45000000000002
 20
91.05271751411327
 30
0.0
 40
0.2499999999999817
100
AcDbArc
 50
96.99999999999993
 51
276.9999999999987
  0
ARC
  5
E8
330
1F
100
AcDbEntity
  8
1
  6
Continuous
 62
     7
100
AcDbCircle
 10
-50.45000000000002
 20
92.05271751411327
 30
0.0
 40
0.2499999999999817
100
AcDbArc
 50
96.99999999999993
 51
276.9999999999987
  0
ARC
  5
E9
330
1F
100
AcDbEntity
  8
1
  6
Continuous
 62
     7
100
AcDbCircle
 10
-50.45000000000002
 20
93.05271751411327
 30
0.0
 40
0.2499999999999817
100
AcDbArc
 50
96.99999999999993
 51
276.9999999999987
  0
ARC
  5
EA
330
1F
100
AcDbEntity
  8
1
  6
Continuous
 62
     7
100
AcDbCircle
 10
-50.45000000000002
 20
94.05271751411327
 30
0.0
 40
0.2499999999999817
100
AcDbArc
 50
96.99999999999993
 51
276.9999999999987
  0
ARC
  5
EB
102
{ACAD_REACTORS
330
182
102
}
330
1F
100
AcDbEntity
  8
1
  6
Continuous
 62
     7
100
AcDbCircle
 10
-7.16184965562865
 20
5.42336530453161
 30
0.0
 40
0.1666666666666572
100
AcDbArc
 50
299.9816393688326
 51
119.9816393688413
  0
ARC
  5
EC
102
{ACAD_REACTORS
330
182
102
}
330
1F
100
AcDbEntity
  8
1
  6
Continuous
 62
     7
100
AcDbCircle
 10
-7.16184965562865
 20
6.25
 30
0.0
 40
0.1666666666666847
100
AcDbArc
 50
270.0
 51
90.0
  0
ARC
  5
ED
102
{ACAD_REACTORS
330
182
102
}
330
1F
100
AcDbEntity
  8
1
  6
Continuous
 62
     7
100
AcDbCircle
 10
-7.16184965562865
 20
7.07663469546833
 30
0.0
 40
0.1666666666666886
100
AcDbArc
 50
240.0183606311493
 51
60.01836063115717
  0
ARC
  5
EE
102
{ACAD_REACTORS
330
183
102
}
330
1F
100
AcDbEntity
  8
1
  6
Continuous
 62
     7
100
AcDbCircle
 10
-11.16184965562866
 20
5.42336530453161
 30
0.0
 40
0.1666666666666785
100
AcDbArc
 50
180.0
 51
0.0
  0
ARC
  5
EF
102
{ACAD_REACTORS
330
183
102
}
330
1F
100
AcDbEntity
  8
1
  6
Continuous
 62
     7
100
AcDbCircle
 10
-11.16184965562866
 20
7.07663469546833
 30
0.0
 40
0.1666666666666305
100
AcDbArc
 50
0.0
 51
180.0
  0
ARC
  5
F0
102
{ACAD_REACTORS
330
184
102
}
330
1F
100
AcDbEntity
  8
1
  6
Continuous
 62
     7
100
AcDbCircle
 10
-9.32851632229534
 20
4.36567299683935
 30
0.0
 40
0.1666666666666837
100
AcDbArc
 50
240.0183606311504
 51
60.01836063114937
  0
ARC
  5
F1
102
{ACAD_REACTORS
330
184
102
}
330
1F
100
AcDbEntity
  8
1
  6
Continuous
 62
     7
100
AcDbCircle
 10
-10.49518298896203
 20
7.46125008008369
 30
0.0
 40
0.1666666666666909
100
AcDbArc
 50
0.0
 51
180.0
  0
ARC
  5
F2
102
{ACAD_REACTORS
330
185
102
}
330
1F
100
AcDbEntity
  8
1
  6
Continuous
 62
     7
100
AcDbCircle
 10
-8.460999428533
 20
7.86560865601728
 30
0.0
 40
0.1324831062376557
100
AcDbArc
 50
0.0
 51
149.9999999999743
  0
ARC
  5
F3
102
{ACAD_REACTORS
330
185
102
}
330
1F
100
AcDbEntity
  8
1
  6
Continuous
 62
     7
100
AcDbCircle
 10
-8.49518298896197
 20
4.6541345353009
 30
0.0
 40
0.1666666666666856
100
AcDbArc
 50
180.0
 51
0.0
  0
ARC
  5
F4
102
{ACAD_REACTORS
330
185
102
}
330
1F
100
AcDbEntity
  8
1
  6
Continuous
 62
     7
100
AcDbCircle
 10
-9.82851632229534
 20
5.42379253631645
 30
0.0
 40
0.1666666666666856
100
AcDbArc
 50
180.0
 51
0.0
  0
ARC
  5
F5
102
{ACAD_REACTORS
330
185
102
}
330
1F
100
AcDbEntity
  8
1
  6
Continuous
 62
     7
100
AcDbCircle
 10
-9.86269988272437
 20
7.86560865601728
 30
0.0
 40
0.1324831062376642
100
AcDbArc
 50
30.00000000001384
 51
180.0
  0
SPLINE
  5
F6
330
1F
100
AcDbEntity
  8
1
  6
Continuous
 62
     2
100
AcDbSpline
210
0.0
220
0.0
230
1.0
 70
     8
 71
     3
 72
     9
 73
     5
 74
     3
 42
0.000000001
 43
0.0000000001
 44
0.00000001
 40
0.0
 40
0.0
 40
0.0
 40
0.0
 40
0.2376204020043325
 40
0.4754608456964202
 40
0.4754608456964202
 40
0.4754608456964202
 40
0.4754608456964202
 10
-47.72500000000001
 20
78.86144624452707
 30
0.0
 10
-47.64583472653638
 20
78.86408089910803
 30
0.0
 10
-47.48743087163642
 20
78.8693526680008
 30
0.0
 10
-47.32916803806929
 20
78.87786442035737
 30
0.0
 10
-47.24999999999999
 20
78.8821222761341
 30
0.0
 11
-47.72500000000001
 21
78.86144624452707
 31
0.0
 11
-47.48753940268401
 21
78.87015946456594
 31
0.0
 11
-47.24999999999999
 21
78.8821222761341
 31
0.0
  0
SPLINE
  5
F7
330
1F
100
AcDbEntity
  8
1
  6
Continuous
 62
     2
100
AcDbSpline
210
0.0
220
0.0
230
1.0
 70
     8
 71
     3
 72
     9
 73
     5
 74
     3
 42
0.000000001
 43
0.0000000001
 44
0.00000001
 40
0.0
 40
0.0
 40
0.0
 40
0.0
 40
0.7751177187381236
 40
1.550560266935728
 40
1.550560266935728
 40
1.550560266935728
 40
1.550560266935728
 10
-49.27500000000002
 20
78.88452036182181
 30
0.0
 10
-49.01684996859345
 20
78.87200035725708
 30
0.0
 10
-48.50044172203305
 20
78.84695512133958
 30
0.0
 10
-47.98351667119971
 20
78.85661518889825
 30
0.0
 10
-47.72500000000001
 20
78.86144624452707
 30
0.0
 11
-49.27500000000002
 21
78.88452036182181
 31
0.0
 11
-48.50042075846702
 21
78.85563304912282
 31
0.0
 11
-47.72500000000001
 21
78.86144624452707
 31
0.0
  0
SPLINE
  5
F8
330
1F
100
AcDbEntity
  8
0
  6
Continuous
 62
     7
100
AcDbSpline
210
0.0
220
0.0
230
1.0
 70
     8
 71
     3
 72
     9
 73
     5
 74
     3
 42
0.000000001
 43
0.0000000001
 44
0.00000001
 40
0.0
 40
0.0
 40
0.0
 40
0.0
 40
0.0920310878871675
 40
0.1835222388826188
 40
0.1835222388826188
 40
0.1835222388826188
 40
0.1835222388826188
 10
-19.62913399994596
 20
124.6951352316885
 30
0.0
 10
-19.65853999604082
 20
124.7040311341401
 30
0.0
 10
-19.7171794595869
 20
124.7217707665028
 30
0.0
 10
-19.77263392449641
 20
124.7478093162438
 30
0.0
 10
-19.80027957745723
 20
124.7607902965813
 30
0.0
 11
-19.62913399994596
 21
124.6951352316885
 31
0.0
 11
-19.7165510432837
 21
124.723909903901
 31
0.0
 11
-19.80027957745723
 21
124.7607902965813
 31
0.0
  0
SPLINE
  5
F9
330
1F
100
AcDbEntity
  8
0
  6
Continuous
 62
     7
100
AcDbSpline
210
0.0
220
0.0
230
1.0
 70
     8
 71
     3
 72
    13
 73
     9
 74
     7
 42
0.000000001
 43
0.0000000001
 44
0.00000001
 40
0.0
 40
0.0
 40
0.0
 40
0.0
 40
0.4481098145916381
 40
0.8668648591297573
 40
1.249608234944591
 40
1.594694357029223
 40
1.907355981207145
 40
2.200802636420822
 40
2.200802636420822
 40
2.200802636420822
 40
2.200802636420822
 10
-18.82818243359122
 20
126.2378519513529
 30
0.0
 10
-18.86078245202888
 20
126.0918081233691
 30
0.0
 10
-18.92384691530948
 20
125.8092875017554
 30
0.0
 10
-18.9386057043307
 20
125.3907247823697
 30
0.0
 10
-18.88882695989417
 20
125.0091836672535
 30
0.0
 10
-18.7691771892667
 20
124.6815453459952
 30
0.0
 10
-18.58749491465391
 20
124.412365954595
 30
0.0
 10
-18.41533141008176
 20
124.3031320783846
 30
0.0
 10
-18.33197863504344
 20
124.2502466231244
 30
0.0
 11
-18.82818243359122
 21
126.2378519513529
 31
0.0
 11
-18.91186637125668
 21
125.7976254190028
 31
0.0
 11
-18.92694851939304
 21
125.3791420669987
 31
0.0
 11
-18.87278521032497
 21
125.0002504877969
 31
0.0
 11
-18.75168692712732
 21
124.677110209039
 31
0.0
 11
-18.56881815559655
 21
124.4235036100185
 31
0.0
 11
-18.33197863504344
 21
124.2502466231244
 31
0.0
  0
SPLINE
  5
FA
330
1F
100
AcDbEntity
  8
0
  6
Continuous
 62
     7
100
AcDbSpline
210
0.0
220
0.0
230
1.0
 70
     8
 71
     3
 72
    19
 73
    15
 74
    13
 42
0.000000001
 43
0.0000000001
 44
0.00000001
 40
0.0
 40
0.0
 40
0.0
 40
0.0
 40
0.4863451527298497
 40
1.021264159374553
 40
1.631232231144452
 40
2.317726608994923
 40
3.064183055724326
 40
3.843159289741345
 40
4.622135523758422
 40
5.368591970487883
 40
6.055086348338355
 40
6.665054420108237
 40
7.199973426752957
 40
7.686318579482817
 40
7.686318579482817
 40
7.686318579482817
 40
7.686318579482817
 10
-22.42804943124148
 20
125.5156582290985
 30
0.0
 10
-22.56414481708908
 20
125.6078758528275
 30
0.0
 10
-22.84992814130018
 20
125.8015213724319
 30
0.0
 10
-23.10413063245707
 20
126.3039465889674
 30
0.0
 10
-23.2242998731524
 20
126.9054663920336
 30
0.0
 10
-23.19966027231803
 20
127.5920545682962
 30
0.0
 10
-23.03760033690114
 20
128.3146552072769
 30
0.0
 10
-22.74792337457307
 20
129.0296971670139
 30
0.0
 10
-22.34969598418026
 20
129.6904639127187
 30
0.0
 10
-21.86885143424584
 20
130.2536722444406
 30
0.0
 10
-21.33436465373638
 20
130.6853368308657
 30
0.0
 10
-20.78104726686614
 20
130.9501133201492
 30
0.0
 10
-20.22658559894366
 20
131.0482064571449
 30
0.0
 10
-19.90019918873349
 20
130.9357671095387
 30
0.0
 10
-19.74476785824172
 20
130.882221375098
 30
0.0
 11
-22.42804943124148
 21
125.5156582290985
 31
0.0
 11
-22.80761675908426
 21
125.8197310098151
 31
0.0
 11
-23.06988748486157
 21
126.2859417125026
 31
0.0
 11
-23.19698638396198
 21
126.8825210588932
 31
0.0
 11
-23.1802539850673
 21
127.5688114891363
 31
0.0
 11
-23.02082840805249
 21
128.2980444471144
 31
0.0
 11
-22.72957631725708
 21
129.0205236383559
 31
0.0
 11
-22.32634421874106
 21
129.6870128257373
 31
0.0
 11
-21.83861319856743
 21
130.252093062136
 31
0.0
 11
-21.29962029370983
 21
130.6772532393976
 31
0.0
 11
-20.74609747713711
 21
130.9335217279516
 31
0.0
 11
-20.21576647952066
 21
131.0034315689423
 31
0.0
 11
-19.74476785824172
 21
130.882221375098
 31
0.0
  0
SPLINE
  5
FB
330
1F
100
AcDbEntity
  8
0
  6
Continuous
 62
     7
100
AcDbSpline
210
0.0
220
0.0
230
1.0
 70
     8
 71
     3
 72
    11
 73
     7
 74
     5
 42
0.000000001
 43
0.0000000001
 44
0.00000001
 40
0.0
 40
0.0
 40
0.0
 40
0.0
 40
0.2151609703628329
 40
0.4370825823293385
 40
0.6714512749736692
 40
0.9222295844430779
 40
0.9222295844430779
 40
0.9222295844430779
 40
0.9222295844430779
 10
-20.18918830710985
 20
124.9552446614076
 30
0.0
 10
-20.25132846800727
 20
124.9917105838114
 30
0.0
 10
-20.37756130740275
 20
125.0657882483684
 30
0.0
 10
-20.53231795263837
 20
125.2309660033657
 30
0.0
 10
-20.66114274470474
 20
125.4301460150233
 30
0.0
 10
-20.71706227251962
 20
125.582389247273
 30
0.0
 10
-20.74596774080436
 20
125.6610856046576
 30
0.0
 11
-20.18918830710985
 21
124.9552446614076
 31
0.0
 11
-20.36943100623223
 21
125.0727470582697
 31
0.0
 11
-20.52423753377911
 21
125.2317569381719
 31
0.0
 11
-20.65057484435841
 21
125.4291589870925
 31
0.0
 11
-20.74596774080436
 21
125.6610856046576
 31
0.0
  0
SPLINE
  5
FC
330
1F
100
AcDbEntity
  8
0
  6
Continuous
 62
     7
100
AcDbSpline
210
0.0
220
0.0
230
1.0
 70
     8
 71
     3
 72
    11
 73
     7
 74
     5
 42
0.000000001
 43
0.0000000001
 44
0.00000001
 40
0.0
 40
0.0
 40
0.0
 40
0.0
 40
0.3585371746935642
 40
0.6893200254550409
 40
0.99827932532133
 40
1.295091619489682
 40
1.295091619489682
 40
1.295091619489682
 40
1.295091619489682
 10
-20.78491194077955
 20
125.3649098771175
 30
0.0
 10
-20.89636060521397
 20
125.3206431365581
 30
0.0
 10
-21.1106307095671
 20
125.2355363528539
 30
0.0
 10
-21.44253577842539
 20
125.1887151957351
 30
0.0
 10
-21.75876634412268
 20
125.2072235738644
 30
0.0
 10
-21.94694034662142
 20
125.283721746433
 30
0.0
 10
-22.03914070158886
 20
125.3212038642722
 30
0.0
 11
-20.78491194077955
 21
125.3649098771175
 31
0.0
 11
-21.12329246821704
 21
125.2463876247042
 31
0.0
 11
-21.45067687895409
 21
125.199093403865
 31
0.0
 11
-21.75861040945478
 21
125.2242487494302
 31
0.0
 11
-22.03914070158886
 21
125.3212038642722
 31
0.0
  0
SPLINE
  5
FD
330
1F
100
AcDbEntity
  8
0
  6
Continuous
 62
     7
100
AcDbSpline
210
0.0
220
0.0
230
1.0
 70
     8
 71
     3
 72
    11
 73
     7
 74
     5
 42
0.000000001
 43
0.0000000001
 44
0.00000001
 40
0.0
 40
0.0
 40
0.0
 40
0.0
 40
0.2968122941683566
 40
0.6057715940346422
 40
0.9365544447961025
 40
1.295091619489629
 40
1.295091619489629
 40
1.295091619489629
 40
1.295091619489629
 10
-19.35585912858912
 20
130.6877670102717
 30
0.0
 10
-19.27055322133732
 20
130.6364959970012
 30
0.0
 10
-19.09645028178316
 20
130.5318556985434
 30
0.0
 10
-18.89190523986136
 20
130.2899762728632
 30
0.0
 10
-18.73021912424143
 20
129.9963595235052
 30
0.0
 10
-18.66974248859292
 20
129.7738793698003
 30
0.0
 10
-18.63828668237979
 20
129.6581603939171
 30
0.0
 11
-19.35585912858912
 21
130.6877670102717
 31
0.0
 11
-19.10997686143514
 21
130.5215158454696
 31
0.0
 11
-18.90509246668253
 21
130.2902622284082
 31
0.0
 11
-18.74649719691168
 21
129.999978167315
 31
0.0
 11
-18.63828668237979
 21
129.6581603939171
 31
0.0
  0
SPLINE
  5
FE
330
1F
100
AcDbEntity
  8
0
  6
Continuous
 62
     7
100
AcDbSpline
210
0.0
220
0.0
230
1.0
 70
     8
 71
     3
 72
     9
 73
     5
 74
     3
 42
0.000000001
 43
0.0000000001
 44
0.00000001
 40
0.0
 40
0.0
 40
0.0
 40
0.0
 40
0.0098828325098382
 40
0.0197651884503694
 40
0.0197651884503694
 40
0.0197651884503694
 40
0.0197651884503694
 10
-22.44564945727521
 20
125.5246523508551
 30
0.0
 10
-22.44861828200241
 20
125.5260801483454
 30
0.0
 10
-22.45455577954716
 20
125.5289356924602
 30
0.0
 10
-22.46045515707259
 20
125.5318691808338
 30
0.0
 10
-22.4634047703008
 20
125.5333358986282
 30
0.0
 11
-22.44564945727521
 21
125.5246523508551
 31
0.0
 11
-22.45454639663842
 21
125.528955239333
 31
0.0
 11
-22.4634047703008
 21
125.5333358986282
 31
0.0
  0
SPLINE
  5
FF
330
1F
100
AcDbEntity
  8
0
  6
Continuous
 62
     7
100
AcDbSpline
210
0.0
220
0.0
230
1.0
 70
     8
 71
     3
 72
    19
 73
    15
 74
    13
 42
0.000000001
 43
0.0000000001
 44
0.00000001
 40
0.0
 40
0.0
 40
0.0
 40
0.0
 40
0.3890761212062732
 40
0.8170113247964235
 40
1.304985782521543
 40
1.85418128523952
 40
2.451346443327158
 40
3.074527431952007
 40
3.697708420576853
 40
4.294873578664482
 40
4.844069081382392
 40
5.332043539107501
 40
5.759978742697662
 40
6.149054863903903
 40
6.149054863903903
 40
6.149054863903903
 40
6.149054863903903
 10
-21.77081254428879
 20
125.8578601788721
 30
0.0
 10
-21.87968885269326
 20
125.93163427767
 30
0.0
 10
-22.10831550910084
 20
126.0865506952387
 30
0.0
 10
-22.31167750536709
 20
126.4884908649435
 30
0.0
 10
-22.40781289863337
 20
126.969706707509
 30
0.0
 10
-22.38810121861529
 20
127.5189772488621
 30
0.0
 10
-22.25845327071261
 20
128.0970577610645
 30
0.0
 10
-22.02671170096103
 20
128.669091330208
 30
0.0
 10
-21.70812978749715
 20
129.1977047274953
 30
0.0
 10
-21.32345414647689
 20
129.6482713931389
 30
0.0
 10
-20.89586472140526
 20
129.9936030619652
 30
0.0
 10
-20.45321081139311
 20
130.2054242528914
 30
0.0
 10
-20.00964147786953
 20
130.2838987577014
 30
0.0
 10
-19.74853234997006
 20
130.1939472831164
 30
0.0
 10
-19.62418728588909
 20
130.1511106956715
 30
0.0
 11
-21.77081254428879
 21
125.8578601788721
 31
0.0
 11
-22.07446640656291
 21
126.1011184034455
 31
0.0
 11
-22.28428298718472
 21
126.4740869655955
 31
0.0
 11
-22.38596210646505
 21
126.951350442708
 31
0.0
 11
-22.37257618734931
 21
127.5003827869023
 31
0.0
 11
-22.24503572573747
 21
128.0837691532848
 31
0.0
 11
-22.01203405310116
 21
128.661752506278
 31
0.0
 11
-21.68944837428837
 21
129.194943856183
 31
0.0
 11
-21.29926355814951
 21
129.647008045302
 31
0.0
 11
-20.86806923426348
 21
129.9871361871111
 31
0.0
 11
-20.42525098100534
 21
130.1921509779543
 31
0.0
 11
-20.00098618291222
 21
130.2480788507469
 31
0.0
 11
-19.62418728588909
 21
130.1511106956715
 31
0.0
  0
SPLINE
  5
100
330
1F
100
AcDbEntity
  8
0
  6
Continuous
 62
     7
100
AcDbSpline
210
0.0
220
0.0
230
1.0
 70
     8
 71
     3
 72
    11
 73
     7
 74
     5
 42
0.000000001
 43
0.0000000001
 44
0.00000001
 40
0.0
 40
0.0
 40
0.0
 40
0.0
 40
0.365145703947061
 40
0.7113330105456125
 40
1.034957851294017
 40
1.33424921306902
 40
1.33424921306902
 40
1.33424921306902
 40
1.33424921306902
 10
-20.68729349423752
 20
127.0173891274293
 30
0.0
 10
-20.71120733138578
 20
126.8978741832032
 30
0.0
 10
-20.75779338253915
 20
126.6650495189107
 30
0.0
 10
-20.77438457651589
 20
126.3195785603311
 30
0.0
 10
-20.75350137818416
 20
125.9954092189627
 30
0.0
 10
-20.69787906998186
 20
125.7948531208227
 30
0.0
 10
-20.67115431835993
 20
125.6984923158799
 30
0.0
 11
-20.68729349423752
 21
127.0173891274293
 31
0.0
 11
-20.74976420277356
 21
126.657626989952
 31
0.0
 11
-20.76802234619301
 21
126.3119214904852
 31
0.0
 11
-20.74158692500485
 21
125.9893781488662
 31
0.0
 11
-20.67115431835993
 21
125.6984923158799
 31
0.0
  0
SPLINE
  5
101
330
1F
100
AcDbEntity
  8
0
  6
Continuous
 62
     7
100
AcDbSpline
210
0.0
220
0.0
230
1.0
 70
     8
 71
     3
 72
    11
 73
     7
 74
     5
 42
0.000000001
 43
0.0000000001
 44
0.00000001
 40
0.0
 40
0.0
 40
0.0
 40
0.0
 40
0.2002486967082513
 40
0.4173988620214549
 40
0.6516306168526034
 40
0.9015303677260138
 40
0.9015303677260138
 40
0.9015303677260138
 40
0.9015303677260138
 10
-20.17172235351269
 20
125.9482082983035
 30
0.0
 10
-20.19940811934162
 20
126.0091645584181
 30
0.0
 10
-20.25711638172981
 20
126.1362219383312
 30
0.0
 10
-20.29919302137809
 20
126.3509013709629
 30
0.0
 10
-20.31507277569778
 20
126.5848214767596
 30
0.0
 10
-20.29980714890417
 20
126.7457425898649
 30
0.0
 10
-20.29192730642353
 20
126.8288070990077
 30
0.0
 11
-20.17172235351269
 21
125.9482082983035
 31
0.0
 11
-20.24770066885919
 21
126.1334833280795
 31
0.0
 11
-20.29371005069218
 21
126.3457033364969
 31
0.0
 11
-20.30857848373871
 21
126.5794627114096
 31
0.0
 11
-20.29192730642353
 21
126.8288070990077
 31
0.0
  0
SPLINE
  5
102
330
1F
100
AcDbEntity
  8
0
  6
Continuous
 62
     7
100
AcDbSpline
210
0.0
220
0.0
230
1.0
 70
     8
 71
     3
 72
     9
 73
     5
 74
     3
 42
0.000000001
 43
0.0000000001
 44
0.00000001
 40
0.0
 40
0.0
 40
0.0
 40
0.0
 40
0.0098823559405029
 40
0.0197651884503385
 40
0.0197651884503385
 40
0.0197651884503385
 40
0.0197651884503385
 10
-19.78012319730105
 20
130.8998990446277
 30
0.0
 10
-19.77718005512857
 20
130.8984193847217
 30
0.0
 10
-19.77129363791452
 20
130.8954599757256
 30
0.0
 10
-19.76544670409586
 20
130.8924233041586
 30
0.0
 10
-19.7625231712673
 20
130.890904922871
 30
0.0
 11
-19.78012319730105
 21
130.8998990446277
 31
0.0
 11
-19.77130364566748
 21
130.8954407412749
 31
0.0
 11
-19.7625231712673
 21
130.890904922871
 31
0.0
  0
SPLINE
  5
103
330
1F
100
AcDbEntity
  8
0
  6
Continuous
 62
     7
100
AcDbSpline
210
0.0
220
0.0
230
1.0
 70
     8
 71
     3
 72
    13
 73
     9
 74
     7
 42
0.000000001
 43
0.0000000001
 44
0.00000001
 40
0.0
 40
0.0
 40
0.0
 40
0.0
 40
0.6123715752950255
 40
1.266132441182508
 40
1.941899324402177
 40
2.617666207621768
 40
3.271427073509215
 40
3.883798648804233
 40
3.883798648804233
 40
3.883798648804233
 40
3.883798648804233
 10
-23.20767946956258
 20
127.1560563373272
 30
0.0
 10
-23.19725760558275
 20
127.3603954730637
 30
0.0
 10
-23.17570946435115
 20
127.7828847237287
 30
0.0
 10
-23.00736258280676
 20
128.4121861156715
 30
0.0
 10
-22.75232343883716
 20
129.031897199146
 30
0.0
 10
-22.40957805843919
 20
129.6077551644065
 30
0.0
 10
-22.00714507381171
 20
130.1200135048076
 30
0.0
 10
-21.68208255801864
 20
130.3907455681918
 30
0.0
 10
-21.52486436781736
 20
130.5216865408176
 30
0.0
 11
-23.20767946956258
 21
127.1560563373272
 31
0.0
 11
-23.15577835275932
 21
127.7662245280334
 31
0.0
 11
-22.9962536907068
 21
128.4002238607829
 31
0.0
 11
-22.73754532763023
 21
129.0245081435426
 31
0.0
 11
-22.39334291926845
 21
129.6060454036596
 31
0.0
 11
-21.98185825030033
 21
130.1140647329513
 31
0.0
 11
-21.52486436781736
 21
130.5216865408176
 31
0.0
  0
SPLINE
  5
104
330
1F
100
AcDbEntity
  8
0
  6
Continuous
 62
     7
100
AcDbSpline
210
0.0
220
0.0
230
1.0
 70
     8
 71
     3
 72
    19
 73
    15
 74
    13
 42
0.000000001
 43
0.0000000001
 44
0.00000001
 40
0.0
 40
0.0
 40
0.0
 40
0.0
 40
0.4863451527298464
 40
1.021264159374565
 40
1.631232231144436
 40
2.317726608994879
 40
3.064183055724279
 40
3.843159289741351
 40
4.622135523758432
 40
5.368591970487891
 40
6.055086348338355
 40
6.66505442010824
 40
7.199973426752961
 40
7.686318579482821
 40
7.686318579482821
 40
7.686318579482821
 40
7.686318579482821
 10
-22.03914070158886
 20
125.3212038642722
 30
0.0
 10
-22.17523608743646
 20
125.4134214880012
 30
0.0
 10
-22.46101941164758
 20
125.6070670076056
 30
0.0
 10
-22.71522190280445
 20
126.109492224141
 30
0.0
 10
-22.83539114349979
 20
126.7110120272073
 30
0.0
 10
-22.81075154266543
 20
127.3976002034699
 30
0.0
 10
-22.64869160724854
 20
128.1202008424505
 30
0.0
 10
-22.35901464492049
 20
128.8352428021876
 30
0.0
 10
-21.96078725452766
 20
129.4960095478924
 30
0.0
 10
-21.47994270459324
 20
130.0592178796143
 30
0.0
 10
-20.94545592408378
 20
130.4908824660394
 30
0.0
 10
-20.39213853721354
 20
130.7556589553229
 30
0.0
 10
-19.83767686929107
 20
130.8537520923186
 30
0.0
 10
-19.5112904590809
 20
130.7413127447124
 30
0.0
 10
-19.35585912858912
 20
130.6877670102717
 30
0.0
 11
-22.03914070158886
 21
125.3212038642722
 31
0.0
 11
-22.41870802943165
 21
125.6252766449888
 31
0.0
 11
-22.68097875520896
 21
126.0914873476763
 31
0.0
 11
-22.80807765430937
 21
126.6880666940669
 31
0.0
 11
-22.79134525541469
 21
127.3743571243099
 31
0.0
 11
-22.6319196783999
 21
128.103590082288
 31
0.0
 11
-22.34066758760449
 21
128.8260692735296
 31
0.0
 11
-21.93743548908845
 21
129.492558460911
 31
0.0
 11
-21.44970446891482
 21
130.0576386973097
 31
0.0
 11
-20.91071156405723
 21
130.4827988745713
 31
0.0
 11
-20.35718874748451
 21
130.7390673631253
 31
0.0
 11
-19.82685774986806
 21
130.808977204116
 31
0.0
 11
-19.35585912858912
 21
130.6877670102717
 31
0.0
  0
SPLINE
  5
105
330
1F
100
AcDbEntity
  8
0
  6
Continuous
 62
     7
100
AcDbSpline
210
0.0
220
0.0
230
1.0
 70
     8
 71
     3
 72
    19
 73
    15
 74
    13
 42
0.000000001
 43
0.0000000001
 44
0.00000001
 40
0.0
 40
0.0
 40
0.0
 40
0.0
 40
0.4863451527298403
 40
1.021264159374545
 40
1.631232231144431
 40
2.317726608994889
 40
3.064183055724318
 40
3.84315928974139
 40
4.622135523758419
 40
5.368591970487861
 40
6.055086348338325
 40
6.665054420108222
 40
7.199973426752942
 40
7.686318579482809
 40
7.686318579482809
 40
7.686318579482809
 40
7.686318579482809
 10
-22.4634047703008
 20
125.5333358986282
 30
0.0
 10
-22.59950015614841
 20
125.6255535223572
 30
0.0
 10
-22.88528348035952
 20
125.8191990419616
 30
0.0
 10
-23.1394859715164
 20
126.321624258497
 30
0.0
 10
-23.25965521221176
 20
126.9231440615633
 30
0.0
 10
-23.23501561137736
 20
127.6097322378259
 30
0.0
 10
-23.07295567596048
 20
128.3323328768065
 30
0.0
 10
-22.78327871363244
 20
129.0473748365436
 30
0.0
 10
-22.38505132323958
 20
129.7081415822483
 30
0.0
 10
-21.90420677330516
 20
130.2713499139702
 30
0.0
 10
-21.36971999279572
 20
130.7030145003953
 30
0.0
 10
-20.81640260592548
 20
130.9677909896788
 30
0.0
 10
-20.26194093800301
 20
131.0658841266746
 30
0.0
 10
-19.93555452779283
 20
130.9534447790684
 30
0.0
 10
-19.78012319730105
 20
130.8998990446277
 30
0.0
 11
-22.4634047703008
 21
125.5333358986282
 31
0.0
 11
-22.84297209814359
 21
125.8374086793447
 31
0.0
 11
-23.1052428239209
 21
126.3036193820323
 31
0.0
 11
-23.23234172302132
 21
126.9001987284229
 31
0.0
 11
-23.21560932412664
 21
127.5864891586659
 31
0.0
 11
-23.05618374711183
 21
128.315722116644
 31
0.0
 11
-22.76493165631642
 21
129.0382013078857
 31
0.0
 11
-22.36169955780039
 21
129.7046904952669
 31
0.0
 11
-21.87396853762676
 21
130.2697707316656
 31
0.0
 11
-21.33497563276917
 21
130.6949309089272
 31
0.0
 11
-20.78145281619645
 21
130.9511993974812
 31
0.0
 11
-20.25112181858
 21
131.021109238472
 31
0.0
 11
-19.78012319730105
 21
130.8998990446277
 31
0.0
  0
SPLINE
  5
106
330
1F
100
AcDbEntity
  8
0
  6
Continuous
 62
     7
100
AcDbSpline
210
0.0
220
0.0
230
1.0
 70
     8
 71
     3
 72
    15
 73
    11
 74
     9
 42
0.000000001
 43
0.0000000001
 44
0.00000001
 40
0.0
 40
0.0
 40
0.0
 40
0.0
 40
0.4105281375982924
 40
0.7786951826947255
 40
1.109196029124078
 40
1.416875593316716
 40
1.724555157509369
 40
2.055056003938715
 40
2.423223049035136
 40
2.833751186633411
 40
2.833751186633411
 40
2.833751186633411
 40
2.833751186633411
 10
-12.45970591426573
 20
125.47657869453
 30
0.0
 10
-12.34598739385147
 20
125.5535273194154
 30
0.0
 10
-12.13028459857568
 20
125.699484474176
 30
0.0
 10
-11.77630791423002
 20
125.8216136107921
 30
0.0
 10
-11.43669241635379
 20
125.8444683247336
 30
0.0
 10
-11.12656250893642
 20
125.7563801186841
 30
0.0
 10
-10.87001399964638
 20
125.5611291163798
 30
0.0
 10
-10.68452847207382
 20
125.275723889714
 30
0.0
 10
-10.56984577075937
 20
124.9192650602678
 30
0.0
 10
-10.55718981740227
 20
124.6591285311908
 30
0.0
 10
-10.55051760506204
 20
124.5219845399282
 30
0.0
 11
-12.45970591426573
 21
125.47657869453
 31
0.0
 11
-12.10943351131273
 21
125.6906875429817
 31
0.0
 11
-11.76072859047837
 21
125.8088055042298
 31
0.0
 11
-11.43063259970331
 21
125.8251593271381
 31
0.0
 11
-11.13527727285687
 21
125.7389505908432
 31
0.0
 11
-10.8890970877131
 21
125.5543915711429
 31
0.0
 11
-10.7041225515747
 21
125.2805024847779
 31
0.0
 11
-10.58939396807254
 21
124.9306677713616
 31
0.0
 11
-10.55051760506204
 21
124.5219845399282
 31
0.0
  0
SPLINE
  5
107
330
1F
100
AcDbEntity
  8
0
  6
Continuous
 62
     7
100
AcDbSpline
210
0.0
220
0.0
230
1.0
 70
     8
 71
     3
 72
    11
 73
     7
 74
     5
 42
0.000000001
 43
0.0000000001
 44
0.00000001
 40
0.0
 40
0.0
 40
0.0
 40
0.0
 40
0.3145168869098356
 40
0.6523621945548278
 40
1.028710728999172
 40
1.448361719455886
 40
1.448361719455886
 40
1.448361719455886
 40
1.448361719455886
 10
-11.11291659308188
 20
125.7836719503931
 30
0.0
 10
-11.02387389244523
 20
125.7262178210547
 30
0.0
 10
-10.83918400394622
 20
125.6070480495241
 30
0.0
 10
-10.65294593023348
 20
125.3085617739666
 30
0.0
 10
-10.53468444418191
 20
124.9462421953197
 30
0.0
 10
-10.52190145245967
 20
124.6800164414714
 30
0.0
 10
-10.51516226600273
 20
124.5396622094578
 30
0.0
 11
-11.11291659308188
 21
125.7836719503931
 31
0.0
 11
-10.86126573715715
 21
125.595011619144
 31
0.0
 11
-10.67218065577122
 21
125.3150361086375
 31
0.0
 11
-10.55490254819123
 21
124.9574272904786
 31
0.0
 11
-10.51516226600273
 21
124.5396622094578
 31
0.0
  0
SPLINE
  5
108
330
1F
100
AcDbEntity
  8
0
  6
Continuous
 62
     7
100
AcDbSpline
210
0.0
220
0.0
230
1.0
 70
     8
 71
     3
 72
    17
 73
    13
 74
    11
 42
0.000000001
 43
0.0000000001
 44
0.00000001
 40
0.0
 40
0.0
 40
0.0
 40
0.0
 40
0.4678810882908405
 40
0.9665556028147415
 40
1.481869076393121
 40
1.997768395679556
 40
2.498136068099647
 40
2.968617974224902
 40
3.398632817451372
 40
3.783778890440327
 40
4.128661987387845
 40
4.448996748766937
 40
4.448996748766937
 40
4.448996748766937
 40
4.448996748766937
 10
-10.51516226600273
 20
124.5396622094578
 30
0.0
 10
-10.52376209407402
 20
124.3835928455108
 30
0.0
 10
-10.54152775742999
 20
124.0611824695867
 30
0.0
 10
-10.66948900964173
 20
123.5809085260335
 30
0.0
 10
-10.8627227931173
 20
123.1078345759117
 30
0.0
 10
-11.12066231634735
 20
122.6651846792046
 30
0.0
 10
-11.42833351226092
 20
122.2744313296459
 30
0.0
 10
-11.77145104494781
 20
121.9549129675958
 30
0.0
 10
-12.13455847703832
 20
121.7209552589945
 30
0.0
 10
-12.49999752623357
 20
121.588341593828
 30
0.0
 10
-12.85838854848986
 20
121.5548656975651
 30
0.0
 10
-13.06878365452553
 20
121.6321099835999
 30
0.0
 10
-13.17009913238167
 20
121.6693068717935
 30
0.0
 11
-10.51516226600273
 21
124.5396622094578
 31
0.0
 11
-10.55635630281801
 21
124.0735980954778
 31
0.0
 11
-10.67785091544846
 21
123.5899501567511
 31
0.0
 11
-10.87349205424482
 21
123.1132190788459
 31
0.0
 11
-11.13336831234406
 21
122.6675550370873
 31
0.0
 11
-11.44431531191073
 21
122.2755349215342
 31
0.0
 11
-11.79058067768337
 21
121.9570172293075
 31
0.0
 11
-12.15462345486159
 21
121.7281381751989
 31
0.0
 11
-12.51800182263771
 21
121.6004915577741
 31
0.0
 11
-12.86230760697732
 21
121.5805446002679
 31
0.0
 11
-13.17009913238167
 21
121.6693068717935
 31
0.0
  0
SPLINE
  5
109
330
1F
100
AcDbEntity
  8
0
  6
Continuous
 62
     7
100
AcDbSpline
210
0.0
220
0.0
230
1.0
 70
     8
 71
     3
 72
     9
 73
     5
 74
     3
 42
0.000000001
 43
0.0000000001
 44
0.00000001
 40
0.0
 40
0.0
 40
0.0
 40
0.0
 40
0.2645748677999366
 40
0.4992181253012539
 40
0.4992181253012539
 40
0.4992181253012539
 40
0.4992181253012539
 10
-12.77745091550952
 20
125.1946420826357
 30
0.0
 10
-12.69110194992951
 20
125.222788784768
 30
0.0
 10
-12.52817275892301
 20
125.2758979062752
 30
0.0
 10
-12.36587914024824
 20
125.2229591524844
 30
0.0
 10
-12.28959764954338
 20
125.1980767904365
 30
0.0
 11
-12.77745091550952
 21
125.1946420826357
 31
0.0
 11
-12.51858253467203
 21
125.2492957485513
 31
0.0
 11
-12.28959764954338
 21
125.1980767904365
 31
0.0
  0
SPLINE
  5
10A
330
1F
100
AcDbEntity
  8
0
  6
Continuous
 62
     7
100
AcDbSpline
210
0.0
220
0.0
230
1.0
 70
     8
 71
     3
 72
    11
 73
     7
 74
     5
 42
0.000000001
 43
0.0000000001
 44
0.00000001
 40
0.0
 40
0.0
 40
0.0
 40
0.0
 40
0.1709330894612662
 40
0.354544667954342
 40
0.5590819137436928
 40
0.7871531046675113
 40
0.7871531046675113
 40
0.7871531046675113
 40
0.7871531046675113
 10
-12.28959764954338
 20
125.1980767904365
 30
0.0
 10
-12.2412048778123
 20
125.1668517203723
 30
0.0
 10
-12.14082994335594
 20
125.1020855354368
 30
0.0
 10
-12.03961359717165
 20
124.9398647372869
 30
0.0
 10
-11.9753410533153
 20
124.7429519226811
 30
0.0
 10
-11.96839376877779
 20
124.5982640140019
 30
0.0
 10
-11.96473116743513
 20
124.5219845399282
 30
0.0
 11
-12.28959764954338
 21
125.1980767904365
 31
0.0
 11
-12.15283088001906
 21
125.0955440017141
 31
0.0
 11
-12.05006724883106
 21
124.943383398178
 31
0.0
 11
-11.98632914688541
 21
124.7490307796134
 31
0.0
 11
-11.96473116743513
 21
124.5219845399282
 31
0.0
  0
SPLINE
  5
10B
330
1F
100
AcDbEntity
  8
0
  6
Continuous
 62
     7
100
AcDbSpline
210
0.0
220
0.0
230
1.0
 70
     8
 71
     3
 72
    15
 73
    11
 74
     9
 42
0.000000001
 43
0.0000000001
 44
0.00000001
 40
0.0
 40
0.0
 40
0.0
 40
0.0
 40
0.3205353206017371
 40
0.6643610838989732
 40
1.015574734786099
 40
1.356979857693471
 40
1.673110619077166
 40
1.953540228810738
 40
2.196968603471978
 40
2.415579446710021
 40
2.415579446710021
 40
2.415579446710021
 40
2.415579446710021
 10
-11.96473116743513
 20
124.5219845399282
 30
0.0
 10
-11.97212584192164
 20
124.4150448058397
 30
0.0
 10
-11.9874525085786
 20
124.1933949826125
 30
0.0
 10
-12.09437468542494
 20
123.8689473331745
 30
0.0
 10
-12.25205924683807
 20
123.5602571280023
 30
0.0
 10
-12.45618746242489
 20
123.2908379315547
 30
0.0
 10
-12.69045882457358
 20
123.0794422474825
 30
0.0
 10
-12.93767050584591
 20
122.9453906470712
 30
0.0
 10
-13.18884218354335
 20
122.8894426231484
 30
0.0
 10
-13.33736095229357
 20
122.9387020360968
 30
0.0
 10
-13.40763163829327
 20
122.9620088129367
 30
0.0
 11
-11.96473116743513
 21
124.5219845399282
 31
0.0
 11
-11.99962931237991
 21
124.2033546491307
 31
0.0
 11
-12.10156664134858
 21
123.8749875752206
 31
0.0
 11
-12.26249498025923
 21
123.5628127872967
 31
0.0
 11
-12.46970560760573
 21
123.2914804931467
 31
0.0
 11
-12.70683697184105
 21
123.0824174063607
 31
0.0
 11
-12.95516365252742
 21
122.9521307011913
 31
0.0
 11
-13.19507663877308
 21
122.9109101252467
 31
0.0
 11
-13.40763163829327
 21
122.9620088129367
 31
0.0
  0
SPLINE
  5
10C
330
1F
100
AcDbEntity
  8
0
  6
Continuous
 62
     7
100
AcDbSpline
210
0.0
220
0.0
230
1.0
 70
     8
 71
     3
 72
     9
 73
     5
 74
     3
 42
0.000000001
 43
0.0000000001
 44
0.00000001
 40
0.0
 40
0.0
 40
0.0
 40
0.0
 40
0.2346432575013218
 40
0.4992181253012648
 40
0.4992181253012648
 40
0.4992181253012648
 40
0.4992181253012648
 10
-13.40763163829327
 20
122.9620088129367
 30
0.0
 10
-13.47330642235451
 20
123.0081045882718
 30
0.0
 10
-13.61303359659204
 20
123.1061762309372
 30
0.0
 10
-13.66830381399017
 20
123.2683850566467
 30
0.0
 10
-13.69759583163233
 20
123.3543522503901
 30
0.0
 11
-13.40763163829327
 21
122.9620088129367
 31
0.0
 11
-13.58599773586229
 21
123.1144653461707
 31
0.0
 11
-13.69759583163233
 21
123.3543522503901
 31
0.0
  0
SPLINE
  5
10D
330
1F
100
AcDbEntity
  8
0
  6
Continuous
 62
     7
100
AcDbSpline
210
0.0
220
0.0
230
1.0
 70
     8
 71
     3
 72
    19
 73
    15
 74
    13
 42
0.000000001
 43
0.0000000001
 44
0.00000001
 40
0.0
 40
0.0
 40
0.0
 40
0.0
 40
0.5341875917106014
 40
1.106140324925901
 40
1.693340511912365
 40
2.27095850218135
 40
2.815601326080855
 40
3.309261880120047
 40
3.744026040523098
 40
4.127752934439768
 40
4.487714319403777
 40
4.862859245320232
 40
5.28445200131455
 40
5.764738902999613
 40
5.764738902999613
 40
5.764738902999613
 40
5.764738902999613
 10
-10.55051760506204
 20
124.5219845399282
 30
0.0
 10
-10.56194620933944
 20
124.3437760675778
 30
0.0
 10
-10.58561139396947
 20
123.97476042633
 30
0.0
 10
-10.75263490918862
 20
123.430828146577
 30
0.0
 10
-11.00110771578666
 20
122.906201326386
 30
0.0
 10
-11.32669286101604
 20
122.4351271298038
 30
0.0
 10
-11.7053369604753
 20
122.0479709592428
 30
0.0
 10
-12.11468173756774
 20
121.7696050562629
 30
0.0
 10
-12.53159691907405
 20
121.6189102788864
 30
0.0
 10
-12.93396032655675
 20
121.61313397578
 30
0.0
 10
-13.28730855492209
 20
121.7671408558767
 30
0.0
 10
-13.54758036834944
 20
122.0648326041614
 30
0.0
 10
-13.70636099554912
 20
122.4687754230657
 30
0.0
 10
-13.72341577442111
 20
122.7703785715075
 30
0.0
 10
-13.7324981204015
 20
122.9309942822585
 30
0.0
 11
-10.55051760506204
 21
124.5219845399282
 31
0.0
 11
-10.60472969318832
 21
123.9905549272261
 31
0.0
 11
-10.76366988241624
 21
123.4411298219936
 31
0.0
 11
-11.01650816266327
 21
122.9111516481516
 31
0.0
 11
-11.34601273389691
 21
122.4367369755107
 31
0.0
 11
-11.72972939325683
 21
122.0502174642159
 31
0.0
 11
-12.14150786273177
 21
121.7779322525784
 31
0.0
 11
-12.55328633220672
 21
121.638438994741
 31
0.0
 11
-12.93700299156664
 21
121.6412418466759
 31
0.0
 11
-13.26650756280029
 21
121.7861519480831
 31
0.0
 11
-13.51934584304732
 21
122.0632918416781
 31
0.0
 11
-13.67828603227523
 21
122.4537767576827
 31
0.0
 11
-13.7324981204015
 21
122.9309942822585
 31
0.0
  0
SPLINE
  5
10E
330
1F
100
AcDbEntity
  8
0
  6
Continuous
 62
     7
100
AcDbSpline
210
0.0
220
0.0
230
1.0
 70
     8
 71
     3
 72
    13
 73
     9
 74
     7
 42
0.000000001
 43
0.0000000001
 44
0.00000001
 40
0.0
 40
0.0
 40
0.0
 40
0.0
 40
0.4633578780324479
 40
0.9574064874597659
 40
1.467751282387171
 40
1.978096077314536
 40
2.47214468674184
 40
2.935502564774321
 40
2.935502564774321
 40
2.935502564774321
 40
2.935502564774321
 10
-13.7324981204015
 20
122.9309942822585
 30
0.0
 10
-13.72388181665192
 20
123.0855613082339
 30
0.0
 10
-13.70607848927643
 20
123.4049331799753
 30
0.0
 10
-13.57791406457879
 20
123.8802520077547
 30
0.0
 10
-13.38493267461526
 20
124.348201817035
 30
0.0
 10
-13.12636166116899
 20
124.7833568145742
 30
0.0
 10
-12.82300525376424
 20
125.1710796509998
 30
0.0
 10
-12.57818975279631
 20
125.3769454359451
 30
0.0
 10
-12.45970591426573
 20
125.47657869453
 30
0.0
 11
-13.7324981204015
 21
122.9309942822585
 31
0.0
 11
-13.69123749573978
 21
123.3925114373827
 31
0.0
 11
-13.56959642844442
 21
123.8713511607698
 31
0.0
 11
-13.37388347289014
 21
124.3426772161725
 31
0.0
 11
-13.11425040190053
 21
124.7820432138575
 31
0.0
 11
-12.80416326356808
 21
125.1666599017261
 31
0.0
 11
-12.45970591426573
 21
125.47657869453
 31
0.0
  0
SPLINE
  5
10F
330
1F
100
AcDbEntity
  8
0
  6
Continuous
 62
     7
100
AcDbSpline
210
0.0
220
0.0
230
1.0
 70
     8
 71
     3
 72
    19
 73
    15
 74
    13
 42
0.000000001
 43
0.0000000001
 44
0.00000001
 40
0.0
 40
0.0
 40
0.0
 40
0.0
 40
0.3728646159523544
 40
0.7829691857001508
 40
1.250611374417839
 40
1.776923731280421
 40
2.3492070079278
 40
2.946422122320697
 40
3.543637236713567
 40
4.115920513360959
 40
4.642232870223544
 40
5.109875058941252
 40
5.51997962868903
 40
5.89284424464138
 40
5.89284424464138
 40
5.89284424464138
 40
5.89284424464138
 10
-13.17009913238167
 20
121.6693068717935
 30
0.0
 10
-13.27443892787901
 20
121.7400070497695
 30
0.0
 10
-13.49353947298615
 20
121.8884686169987
 30
0.0
 10
-13.68842805343724
 20
122.2736612788986
 30
0.0
 10
-13.78055780546537
 20
122.7348264613806
 30
0.0
 10
-13.76166744558335
 20
123.2612107302488
 30
0.0
 10
-13.63742149559966
 20
123.8152045546548
 30
0.0
 10
-13.41533582461083
 20
124.3634033920328
 30
0.0
 10
-13.11002815730174
 20
124.8699912312507
 30
0.0
 10
-12.74138066776711
 20
125.3017842858813
 30
0.0
 10
-12.33160746860178
 20
125.6327271351078
 30
0.0
 10
-11.90739747139925
 20
125.8357224429746
 30
0.0
 10
-11.48231019360875
 20
125.9109271757535
 30
0.0
 10
-11.23208061276106
 20
125.8247236800054
 30
0.0
 10
-11.11291659308188
 20
125.7836719503931
 30
0.0
 11
-13.17009913238167
 21
121.6693068717935
 31
0.0
 11
-13.46110075039448
 21
121.9024293370096
 31
0.0
 11
-13.66217497349042
 21
122.2598575424034
 31
0.0
 11
-13.75961746280073
 21
122.7172350413028
 31
0.0
 11
-13.74678929031481
 21
123.2433910378224
 31
0.0
 11
-13.62456301460346
 21
123.802469638939
 31
0.0
 11
-13.40126974499365
 21
124.3563703522242
 31
0.0
 11
-13.09212513613136
 21
124.8673453958832
 31
0.0
 11
-12.71819802066491
 21
125.3005735771223
 31
0.0
 11
-12.30497012694076
 21
125.6265297130228
 31
0.0
 11
-11.88060263423502
 21
125.8230022209142
 31
0.0
 11
-11.47401553606241
 21
125.8765997656737
 31
0.0
 11
-11.11291659308188
 21
125.7836719503931
 31
0.0
  0
SPLINE
  5
110
330
1F
100
AcDbEntity
  8
0
  6
Continuous
 62
     7
100
AcDbSpline
210
0.0
220
0.0
230
1.0
 70
     8
 71
     3
 72
     9
 73
     5
 74
     3
 42
0.000000001
 43
0.0000000001
 44
0.00000001
 40
0.0
 40
0.0
 40
0.0
 40
0.0
 40
0.0396063469856268
 40
0.0791607995098928
 40
0.0791607995098928
 40
0.0791607995098928
 40
0.0791607995098928
 10
-16.0676153178584
 20
123.1221190080022
 30
0.0
 10
-16.07986251996192
 20
123.1270602798093
 30
0.0
 10
-16.10434086929421
 20
123.1369363674542
 30
0.0
 10
-16.12808388975222
 20
123.1484687113251
 30
0.0
 10
-16.13994761336518
 20
123.1542311122853
 30
0.0
 11
-16.0676153178584
 21
123.1221190080022
 31
0.0
 11
-16.10417284699641
 21
123.1373574397786
 31
0.0
 11
-16.13994761336518
 21
123.1542311122853
 31
0.0
  0
SPLINE
  5
111
330
1F
100
AcDbEntity
  8
0
  6
Continuous
 62
     7
100
AcDbSpline
210
0.0
220
0.0
230
1.0
 70
     8
 71
     3
 72
    13
 73
     9
 74
     7
 42
0.000000001
 43
0.0000000001
 44
0.00000001
 40
0.0
 40
0.0
 40
0.0
 40
0.0
 40
0.451205127099599
 40
0.9357337215339037
 40
1.438089862035967
 40
1.940446002538079
 40
2.424974596972407
 40
2.876179724071981
 40
2.876179724071981
 40
2.876179724071981
 40
2.876179724071981
 10
-16.59520482591401
 20
124.4005037388592
 30
0.0
 10
-16.59077215842573
 20
124.5512387238206
 30
0.0
 10
-16.58157943669503
 20
124.8638411290795
 30
0.0
 10
-16.4609788375436
 20
125.3313173953798
 30
0.0
 10
-16.27304784200462
 20
125.7922594007297
 30
0.0
 10
-16.01705283504796
 20
126.219169400371
 30
0.0
 10
-15.71543218149873
 20
126.5961356394722
 30
0.0
 10
-15.4708658903299
 20
126.7910512600122
 30
0.0
 10
-15.35293750285379
 20
126.8850383849796
 30
0.0
 11
-16.59520482591401
 21
124.4005037388592
 31
0.0
 11
-16.565798583213
 21
124.8507496051309
 31
0.0
 11
-16.45240390388675
 21
125.3218224307593
 31
0.0
 11
-16.26156805119092
 21
125.7865195053229
 31
0.0
 11
-16.00431190315748
 21
126.2180064322177
 31
0.0
 11
-15.69549045025055
 21
126.5913658710558
 31
0.0
 11
-15.35293750285379
 21
126.8850383849796
 31
0.0
  0
SPLINE
  5
112
330
1F
100
AcDbEntity
  8
0
  6
Continuous
 62
     7
100
AcDbSpline
210
0.0
220
0.0
230
1.0
 70
     8
 71
     3
 72
     9
 73
     5
 74
     3
 42
0.000000001
 43
0.0000000001
 44
0.00000001
 40
0.0
 40
0.0
 40
0.0
 40
0.0
 40
0.0395544525242618
 40
0.0791607995098947
 40
0.0791607995098947
 40
0.0791607995098947
 40
0.0791607995098947
 10
-14.08276507406539
 20
127.2685961908849
 30
0.0
 10
-14.07103691912942
 20
127.2625626525707
 30
0.0
 10
-14.04756523175794
 20
127.2504876425268
 30
0.0
 10
-14.02497735204267
 20
127.2368306156479
 30
0.0
 10
-14.01367601333486
 20
127.2299976170493
 30
0.0
 11
-14.08276507406539
 21
127.2685961908849
 31
0.0
 11
-14.04780127623877
 21
127.2501005812939
 31
0.0
 11
-14.01367601333486
 21
127.2299976170493
 31
0.0
  0
SPLINE
  5
113
330
1F
100
AcDbEntity
  8
0
  6
Continuous
 62
     7
100
AcDbSpline
210
0.0
220
0.0
230
1.0
 70
     8
 71
     3
 72
    19
 73
    15
 74
    13
 42
0.000000001
 43
0.0000000001
 44
0.00000001
 40
0.0
 40
0.0
 40
0.0
 40
0.0
 40
0.3728646159523503
 40
0.7829691857001113
 40
1.2506113744178
 40
1.776923731280424
 40
2.34920700792776
 40
2.946422122320646
 40
3.543637236713533
 40
4.115920513360914
 40
4.642232870223499
 40
5.109875058941186
 40
5.519979628688965
 40
5.892844244641294
 40
5.892844244641294
 40
5.892844244641294
 40
5.892844244641294
 10
-16.13994761336518
 20
123.1542311122853
 30
0.0
 10
-16.24428740886252
 20
123.2249312902613
 30
0.0
 10
-16.46338795396964
 20
123.3733928574906
 30
0.0
 10
-16.65827653442076
 20
123.7585855193903
 30
0.0
 10
-16.75040628644889
 20
124.2197507018724
 30
0.0
 10
-16.73151592656686
 20
124.7461349707406
 30
0.0
 10
-16.60726997658318
 20
125.3001287951467
 30
0.0
 10
-16.38518430559434
 20
125.8483276325246
 30
0.0
 10
-16.07987663828526
 20
126.3549154717425
 30
0.0
 10
-15.7112291487506
 20
126.786708526373
 30
0.0
 10
-15.3014559495853
 20
127.1176513755996
 30
0.0
 10
-14.87724595238274
 20
127.3206466834663
 30
0.0
 10
-14.45215867459227
 20
127.3958514162453
 30
0.0
 10
-14.20192909374457
 20
127.3096479204971
 30
0.0
 10
-14.08276507406539
 20
127.2685961908849
 30
0.0
 11
-16.13994761336518
 21
123.1542311122853
 31
0.0
 11
-16.43094923137799
 21
123.3873535775014
 31
0.0
 11
-16.63202345447392
 21
123.7447817828952
 31
0.0
 11
-16.72946594378424
 21
124.2021592817946
 31
0.0
 11
-16.71663777129832
 21
124.7283152783143
 31
0.0
 11
-16.59441149558698
 21
125.2873938794308
 31
0.0
 11
-16.37111822597716
 21
125.841294592716
 31
0.0
 11
-16.06197361711487
 21
126.352269636375
 31
0.0
 11
-15.68804650164842
 21
126.785497817614
 31
0.0
 11
-15.27481860792427
 21
127.1114539535145
 31
0.0
 11
-14.85045111521852
 21
127.3079264614059
 31
0.0
 11
-14.44386401704591
 21
127.3615240061655
 31
0.0
 11
-14.08276507406539
 21
127.2685961908849
 31
0.0
  0
SPLINE
  5
114
330
1F
100
AcDbEntity
  8
0
  6
Continuous
 62
     7
100
AcDbSpline
210
0.0
220
0.0
230
1.0
 70
     8
 71
     3
 72
    19
 73
    15
 74
    13
 42
0.000000001
 43
0.0000000001
 44
0.00000001
 40
0.0
 40
0.0
 40
0.0
 40
0.0
 40
0.3728646159523564
 40
0.7829691857001422
 40
1.25061137441783
 40
1.776923731280412
 40
2.349207007927776
 40
2.946422122320688
 40
3.54363723671355
 40
4.115920513360938
 40
4.642232870223541
 40
5.109875058941243
 40
5.519979628689016
 40
5.892844244641364
 40
5.892844244641364
 40
5.892844244641364
 40
5.892844244641364
 10
-15.99852625712786
 20
123.0835204341666
 30
0.0
 10
-16.10286605262519
 20
123.1542206121426
 30
0.0
 10
-16.32196659773232
 20
123.3026821793719
 30
0.0
 10
-16.51685517818343
 20
123.6878748412716
 30
0.0
 10
-16.60898493021156
 20
124.1490400237537
 30
0.0
 10
-16.59009457032953
 20
124.6754242926219
 30
0.0
 10
-16.46584862034586
 20
125.229418117028
 30
0.0
 10
-16.24376294935703
 20
125.7776169544059
 30
0.0
 10
-15.93845528204792
 20
126.2842047936238
 30
0.0
 10
-15.56980779251329
 20
126.7159978482544
 30
0.0
 10
-15.16003459334798
 20
127.0469406974809
 30
0.0
 10
-14.73582459614543
 20
127.2499360053477
 30
0.0
 10
-14.31073731835493
 20
127.3251407381266
 30
0.0
 10
-14.06050773750724
 20
127.2389372423785
 30
0.0
 10
-13.94134371782806
 20
127.1978855127662
 30
0.0
 11
-15.99852625712786
 21
123.0835204341666
 31
0.0
 11
-16.28952787514066
 21
123.3166428993827
 31
0.0
 11
-16.4906020982366
 21
123.6740711047765
 31
0.0
 11
-16.58804458754692
 21
124.1314486036759
 31
0.0
 11
-16.575216415061
 21
124.6576046001956
 31
0.0
 11
-16.45299013934966
 21
125.2166832013121
 31
0.0
 11
-16.22969686973984
 21
125.7705839145974
 31
0.0
 11
-15.92055226087754
 21
126.2815589582563
 31
0.0
 11
-15.5466251454111
 21
126.7147871394953
 31
0.0
 11
-15.13339725168695
 21
127.0407432753959
 31
0.0
 11
-14.7090297589812
 21
127.2372157832873
 31
0.0
 11
-14.30244266080859
 21
127.2908133280468
 31
0.0
 11
-13.94134371782806
 21
127.1978855127662
 31
0.0
  0
SPLINE
  5
115
330
1F
100
AcDbEntity
  8
0
  6
Continuous
 62
     7
100
AcDbSpline
210
0.0
220
0.0
230
1.0
 70
     8
 71
     3
 72
    11
 73
     7
 74
     5
 42
0.000000001
 43
0.0000000001
 44
0.00000001
 40
0.0
 40
0.0
 40
0.0
 40
0.0
 40
0.4102371146136821
 40
0.8509021285908737
 40
1.341788052244805
 40
1.889154818978797
 40
1.889154818978797
 40
1.889154818978797
 40
1.889154818978797
 10
-31.62043617245304
 20
130.1118515997043
 30
0.0
 10
-31.73657821084746
 20
130.1867912626207
 30
0.0
 10
-31.97747670707674
 20
130.3422289867711
 30
0.0
 10
-32.22039542997728
 20
130.7315556511058
 30
0.0
 10
-32.37465012364768
 20
131.2041425591989
 30
0.0
 10
-32.39132483167889
 20
131.5513909420431
 30
0.0
 10
-32.40011572948734
 20
131.7344602731039
 30
0.0
 11
-31.62043617245304
 21
130.1118515997043
 31
0.0
 11
-31.9486748170644
 21
130.3579285889534
 31
0.0
 11
-32.19530690665131
 21
130.7231111053826
 31
0.0
 11
-32.34827886635121
 21
131.189553569304
 31
0.0
 11
-32.40011572948734
 21
131.7344602731039
 31
0.0
  0
SPLINE
  5
116
330
1F
100
AcDbEntity
  8
0
  6
Continuous
 62
     7
100
AcDbSpline
210
0.0
220
0.0
230
1.0
 70
     8
 71
     3
 72
    11
 73
     7
 74
     5
 42
0.000000001
 43
0.0000000001
 44
0.00000001
 40
0.0
 40
0.0
 40
0.0
 40
0.0
 40
0.5473667667340204
 40
1.03825269038798
 40
1.478917704365146
 40
1.889154818978855
 40
1.889154818978855
 40
1.889154818978855
 40
1.889154818978855
 10
-30.70304927239357
 20
135.1285931872914
 30
0.0
 10
-30.55131926885993
 20
135.2314020676811
 30
0.0
 10
-30.26351573776583
 20
135.4264113309627
 30
0.0
 10
-29.79289339508902
 20
135.5865597208823
 30
0.0
 10
-29.33568082988094
 20
135.6258207411627
 30
0.0
 10
-29.0667915528231
 20
135.5263645786695
 30
0.0
 10
-28.93715459945329
 20
135.4784147457038
 30
0.0
 11
-30.70304927239357
 21
135.1285931872914
 31
0.0
 11
-30.23602179147193
 21
135.4140677190625
 31
0.0
 11
-29.77108464451489
 21
135.5715556296554
 31
0.0
 11
-29.3309593776194
 21
135.5933594678434
 31
0.0
 11
-28.93715459945329
 21
135.4784147457038
 31
0.0
  0
SPLINE
  5
117
330
1F
100
AcDbEntity
  8
0
  6
Continuous
 62
     7
100
AcDbSpline
210
0.0
220
0.0
230
1.0
 70
     8
 71
     3
 72
    13
 73
     9
 74
     7
 42
0.000000001
 43
0.0000000001
 44
0.00000001
 40
0.0
 40
0.0
 40
0.0
 40
0.0
 40
0.5148450239809744
 40
1.063791548055873
 40
1.63084532681495
 40
2.197899105574029
 40
2.746845629648949
 40
3.261690653629866
 40
3.261690653629866
 40
3.261690653629866
 40
3.261690653629866
 10
-32.40011714370516
 20
132.0880164921073
 30
0.0
 10
-32.39054399400575
 20
132.2597586514227
 30
0.0
 10
-32.37076358841526
 20
132.6146185574579
 30
0.0
 10
-32.22835847720509
 20
133.1427542699887
 30
0.0
 10
-32.01393349084204
 20
133.6627022251485
 30
0.0
 10
-31.72663011853205
 20
134.1462109873348
 30
0.0
 10
-31.3895646152335
 20
134.5770165038214
 30
0.0
 10
-31.11754493375967
 20
134.8057567719148
 30
0.0
 10
-30.98589509612702
 20
134.9164605872636
 30
0.0
 11
-32.40011714370516
 21
132.0880164921073
 31
0.0
 11
-32.35427331151775
 21
132.6008163968548
 31
0.0
 11
-32.21911653621641
 21
133.1328642650175
 31
0.0
 11
-32.00165642426241
 21
133.6565636918586
 31
0.0
 11
-31.71317294996194
 21
134.1447514375265
 31
0.0
 11
-31.36862872061257
 21
134.5721055786652
 31
0.0
 11
-30.98589509612702
 21
134.9164605872636
 31
0.0
  0
SPLINE
  5
118
330
1F
100
AcDbEntity
  8
0
  6
Continuous
 62
     7
100
AcDbSpline
210
0.0
220
0.0
230
1.0
 70
     8
 71
     3
 72
    13
 73
     9
 74
     7
 42
0.000000001
 43
0.0000000001
 44
0.00000001
 40
0.0
 40
0.0
 40
0.0
 40
0.0
 40
0.6178140288820849
 40
1.276549858069411
 40
1.957014392925935
 40
2.637478927782385
 40
3.296214756969658
 40
3.914028785851801
 40
3.914028785851801
 40
3.914028785851801
 40
3.914028785851801
 10
-32.40011572948734
 20
131.7344602731039
 30
0.0
 10
-32.3886279498461
 20
131.9405508643173
 30
0.0
 10
-32.3648914661026
 20
132.3663827519626
 30
0.0
 10
-32.19400533131074
 20
133.0001456071121
 30
0.0
 10
-31.93669534797802
 20
133.6240831537164
 30
0.0
 10
-31.5919313006942
 20
134.2042936683452
 30
0.0
 10
-31.18745269744972
 20
134.7212602892684
 30
0.0
 10
-30.86102907757961
 20
134.9957486088503
 30
0.0
 10
-30.70304927239357
 20
135.1285931872914
 30
0.0
 11
-32.40011572948734
 21
131.7344602731039
 31
0.0
 11
-32.34510313086246
 21
132.3498201588008
 31
0.0
 11
-32.18291500050086
 21
132.9882776005961
 31
0.0
 11
-31.92196286615606
 21
133.6167169128055
 31
0.0
 11
-31.5757826969955
 21
134.2025422076069
 31
0.0
 11
-31.16232962177624
 21
134.7153671769733
 31
0.0
 11
-30.70304927239357
 21
135.1285931872914
 31
0.0
  0
SPLINE
  5
119
330
1F
100
AcDbEntity
  8
0
  6
Continuous
 62
     7
100
AcDbSpline
210
0.0
220
0.0
230
1.0
 70
     8
 71
     3
 72
    15
 73
    11
 74
     9
 42
0.000000001
 43
0.0000000001
 44
0.00000001
 40
0.0
 40
0.0
 40
0.0
 40
0.0
 40
0.5910220838931833
 40
1.192617585322046
 40
1.783134127678428
 40
2.34233014255735
 40
2.854294719126118
 40
3.310893439247771
 40
3.715942142025547
 40
4.088761510808044
 40
4.088761510808044
 40
4.088761510808044
 40
4.088761510808044
 10
-20.35705901115176
 20
126.8522718858864
 30
0.0
 10
-20.30164347578943
 20
127.0417111662707
 30
0.0
 10
-20.18982100765754
 20
127.4239788026341
 30
0.0
 10
-19.9168059500271
 20
127.9556708668688
 30
0.0
 10
-19.58141251050879
 20
128.4356653341586
 30
0.0
 10
-19.19383481442824
 20
128.8348393023932
 30
0.0
 10
-18.77602651368858
 20
129.1332914837751
 30
0.0
 10
-18.3506227324305
 20
129.3090101172721
 30
0.0
 10
-17.92979215538837
 20
129.3635920991148
 30
0.0
 10
-17.68265863088407
 20
129.2752616088934
 30
0.0
 10
-17.56421159995745
 20
129.2329262515809
 30
0.0
 11
-20.35705901115176
 21
126.8522718858864
 31
0.0
 11
-20.1734300645908
 21
127.4140436413
 31
0.0
 11
-19.90345150296419
 21
127.9516575567863
 31
0.0
 11
-19.56275612787856
 21
128.4339815641764
 31
0.0
 11
-19.17107326777796
 21
128.8330864629259
 31
0.0
 11
-18.7510836861074
 21
129.1258602304692
 31
0.0
 11
-18.3271079153982
 21
129.2953504590665
 31
0.0
 11
-17.92369723064419
 21
129.3317410677021
 31
0.0
 11
-17.56421159995745
 21
129.2329262515809
 31
0.0
  0
SPLINE
  5
11A
330
1F
100
AcDbEntity
  8
0
  6
Continuous
 62
     7
100
AcDbSpline
210
0.0
220
0.0
230
1.0
 70
     8
 71
     3
 72
    11
 73
     7
 74
     5
 42
0.000000001
 43
0.0000000001
 44
0.00000001
 40
0.0
 40
0.0
 40
0.0
 40
0.0
 40
0.3879669490021531
 40
0.7895380025328832
 40
1.208385817417023
 40
1.641758006253184
 40
1.641758006253184
 40
1.641758006253184
 40
1.641758006253184
 10
-18.8120503966848
 20
126.2970087886649
 30
0.0
 10
-18.93378576577054
 20
126.3406523687984
 30
0.0
 10
-19.18152516319461
 20
126.429469910317
 30
0.0
 10
-19.56060815079935
 20
126.5656320765018
 30
0.0
 10
-19.95388319099069
 20
126.7070553200958
 30
0.0
 10
-20.22114873844414
 20
126.8033194829291
 30
0.0
 10
-20.35705901115176
 20
126.8522718858864
 30
0.0
 11
-18.8120503966848
 21
126.2970087886649
 31
0.0
 11
-19.17724364403786
 21
126.4279753706927
 31
0.0
 11
-19.55518009986021
 21
126.5637079990403
 31
0.0
 11
-19.9493154650715
 21
126.7054500391219
 31
0.0
 11
-20.35705901115176
 21
126.8522718858864
 31
0.0
  0
SPLINE
  5
11B
330
1F
100
AcDbEntity
  8
0
  6
Continuous
 62
     7
100
AcDbSpline
210
0.0
220
0.0
230
1.0
 70
     8
 71
     3
 72
     9
 73
     5
 74
     3
 42
0.000000001
 43
0.0000000001
 44
0.00000001
 40
0.0
 40
0.0
 40
0.0
 40
0.0
 40
0.0914911509954505
 40
0.183522238882578
 40
0.183522238882578
 40
0.183522238882578
 40
0.183522238882578
 10
-17.56421159995745
 20
129.2329262515809
 30
0.0
 10
-17.53723942391092
 20
129.2185983174148
 30
0.0
 10
-17.48313590517249
 20
129.1898578753317
 30
0.0
 10
-17.43376052115469
 20
129.1535900839125
 30
0.0
 10
-17.40900020153646
 20
129.1354028285076
 30
0.0
 11
-17.56421159995745
 21
129.2329262515809
 31
0.0
 11
-17.48447016530907
 21
129.1880716598503
 31
0.0
 11
-17.40900020153646
 21
129.1354028285076
 31
0.0
  0
SPLINE
  5
11C
330
1F
100
AcDbEntity
  8
0
  6
Continuous
 62
     7
100
AcDbSpline
210
0.0
220
0.0
230
1.0
 70
     8
 71
     3
 72
    15
 73
    11
 74
     9
 42
0.000000001
 43
0.0000000001
 44
0.00000001
 40
0.0
 40
0.0
 40
0.0
 40
0.0
 40
0.337651316365815
 40
0.7036999095191981
 40
1.115443149976882
 40
1.576701319711011
 40
2.080783224329606
 40
2.614069718915753
 40
3.158989551349468
 40
3.696530029491279
 40
3.696530029491279
 40
3.696530029491279
 40
3.696530029491279
 10
-16.27479609574365
 20
128.364611701724
 30
0.0
 10
-16.38195632782602
 20
128.4031592004664
 30
0.0
 10
-16.60528922472023
 20
128.4834961202934
 30
0.0
 10
-16.98566495441603
 20
128.4374012510505
 30
0.0
 10
-17.37099624849884
 20
128.2827765522591
 30
0.0
 10
-17.75050994531331
 20
128.0179556634434
 30
0.0
 10
-18.10424263515718
 20
127.662097242905
 30
0.0
 10
-18.41280674456104
 20
127.2323694436271
 30
0.0
 10
-18.66694176521242
 20
126.7542379553889
 30
0.0
 10
-18.77468037294238
 20
126.4091965478658
 30
0.0
 10
-18.82818243359122
 20
126.2378519513529
 30
0.0
 11
-16.27479609574365
 21
128.364611701724
 31
0.0
 11
-16.60010663773408
 21
128.4550631640962
 31
0.0
 11
-16.96491121457145
 21
128.4249102521912
 31
0.0
 11
-17.3487237436935
 21
128.2758450345885
 31
0.0
 11
-17.72999032432869
 21
128.0162397694754
 31
0.0
 11
-18.087299977221
 21
127.6606720845479
 31
0.0
 11
-18.40058756212416
 21
127.2291105311398
 31
0.0
 11
-18.6522591987972
 21
126.745789716597
 31
0.0
 11
-18.82818243359122
 21
126.2378519513529
 31
0.0
  0
SPLINE
  5
11D
330
1F
100
AcDbEntity
  8
0
  6
Continuous
 62
     7
100
AcDbSpline
210
0.0
220
0.0
230
1.0
 70
     8
 71
     3
 72
    15
 73
    11
 74
     9
 42
0.000000001
 43
0.0000000001
 44
0.00000001
 40
0.0
 40
0.0
 40
0.0
 40
0.0
 40
0.5910220838931936
 40
1.192617585322047
 40
1.783134127678427
 40
2.342330142557357
 40
2.854294719126121
 40
3.310893439247774
 40
3.715942142025546
 40
4.088761510808054
 40
4.088761510808054
 40
4.088761510808054
 40
4.088761510808054
 10
-20.74596774080436
 20
127.0467262507127
 30
0.0
 10
-20.69055220544204
 20
127.2361655310969
 30
0.0
 10
-20.57872973731015
 20
127.6184331674605
 30
0.0
 10
-20.30571467967969
 20
128.1501252316951
 30
0.0
 10
-19.97032124016139
 20
128.6301196989849
 30
0.0
 10
-19.58274354408084
 20
129.0292936672194
 30
0.0
 10
-19.16493524334119
 20
129.3277458486014
 30
0.0
 10
-18.7395314620831
 20
129.5034644820984
 30
0.0
 10
-18.31870088504097
 20
129.5580464639412
 30
0.0
 10
-18.07156736053666
 20
129.4697159737196
 30
0.0
 10
-17.95312032961004
 20
129.4273806164072
 30
0.0
 11
-20.74596774080436
 21
127.0467262507127
 31
0.0
 11
-20.56233879424341
 21
127.6084980061263
 31
0.0
 11
-20.29236023261679
 21
128.1461119216126
 31
0.0
 11
-19.95166485753117
 21
128.6284359290027
 31
0.0
 11
-19.55998199743055
 21
129.0275408277522
 31
0.0
 11
-19.13999241575999
 21
129.3203145952955
 31
0.0
 11
-18.7160166450508
 21
129.4898048238928
 31
0.0
 11
-18.31260596029679
 21
129.5261954325284
 31
0.0
 11
-17.95312032961004
 21
129.4273806164072
 31
0.0
  0
SPLINE
  5
11E
330
1F
100
AcDbEntity
  8
0
  6
Continuous
 62
     7
100
AcDbSpline
210
0.0
220
0.0
230
1.0
 70
     8
 71
     3
 72
    11
 73
     7
 74
     5
 42
0.000000001
 43
0.0000000001
 44
0.00000001
 40
0.0
 40
0.0
 40
0.0
 40
0.0
 40
0.2151609703628585
 40
0.4370825823293539
 40
0.6714512749736726
 40
0.9222295844430944
 40
0.9222295844430944
 40
0.9222295844430944
 40
0.9222295844430944
 10
-19.80027957745723
 20
124.7607902965813
 30
0.0
 10
-19.86241973835466
 20
124.7972562189851
 30
0.0
 10
-19.98865257775014
 20
124.8713338835421
 30
0.0
 10
-20.14340922298576
 20
125.0365116385394
 30
0.0
 10
-20.27223401505216
 20
125.235691650197
 30
0.0
 10
-20.32815354286701
 20
125.3879348824466
 30
0.0
 10
-20.35705901115176
 20
125.4666312398313
 30
0.0
 11
-19.80027957745723
 21
124.7607902965813
 31
0.0
 11
-19.98052227657963
 21
124.8782926934435
 31
0.0
 11
-20.13532880412652
 21
125.0373025733456
 31
0.0
 11
-20.26166611470581
 21
125.2347046222662
 31
0.0
 11
-20.35705901115176
 21
125.4666312398313
 31
0.0
  0
SPLINE
  5
11F
330
1F
100
AcDbEntity
  8
0
  6
Continuous
 62
     7
100
AcDbSpline
210
0.0
220
0.0
230
1.0
 70
     8
 71
     3
 72
    11
 73
     7
 74
     5
 42
0.000000001
 43
0.0000000001
 44
0.00000001
 40
0.0
 40
0.0
 40
0.0
 40
0.0
 40
0.4334030562706119
 40
0.8522200037179495
 40
1.231641216332953
 40
1.598961350171249
 40
1.598961350171249
 40
1.598961350171249
 40
1.598961350171249
 10
-20.35705901115176
 20
125.4666312398313
 30
0.0
 10
-20.22113905624901
 20
125.4176753553711
 30
0.0
 10
-19.95387350518477
 20
125.3214112027818
 30
0.0
 10
-19.56754619631637
 20
125.1824863294385
 30
0.0
 10
-19.2018998750271
 20
125.0511465840535
 30
0.0
 10
-18.96759295214875
 20
124.9671326622995
 30
0.0
 10
-18.85233798126996
 20
124.9258064388083
 30
0.0
 11
-20.35705901115176
 21
125.4666312398313
 31
0.0
 11
-19.94928642099214
 21
125.319798941273
 31
0.0
 11
-19.55518009986021
 21
125.1780673529927
 31
0.0
 11
-19.19809144325795
 21
125.0498170200038
 31
0.0
 11
-18.85233798126996
 21
124.9258064388083
 31
0.0
  0
SPLINE
  5
120
330
1F
100
AcDbEntity
  8
1
  6
Continuous
 62
     7
100
AcDbSpline
210
0.0
220
0.0
230
1.0
 70
     8
 71
     3
 72
    13
 73
     9
 74
     7
 42
0.000000001
 43
0.0000000001
 44
0.00000001
 40
0.0
 40
0.0
 40
0.0
 40
0.0
 40
0.5024194911522923
 40
1.001040974657436
 40
1.164106913111328
 40
1.327284807206993
 40
1.926426093214879
 40
2.53492912916278
 40
2.53492912916278
 40
2.53492912916278
 40
2.53492912916278
 10
-51.00000000000001
 20
90.41479695611702
 30
0.0
 10
-50.8329273211517
 20
90.42768616109494
 30
0.0
 10
-50.5000449377002
 20
90.45336712119149
 30
0.0
 10
-50.11140958990077
 20
90.44120243048934
 30
0.0
 10
-49.83737992856871
 20
90.41859595352088
 30
0.0
 10
-49.53084928957418
 20
90.38418172051969
 30
0.0
 10
-49.07923606822324
 20
90.30645469984293
 30
0.0
 10
-48.69407395664459
 20
90.18835459318156
 30
0.0
 10
-48.5
 20
90.12884677221851
 30
0.0
 11
-51.00000000000001
 21
90.41479695611702
 31
0.0
 11
-50.49845105449921
 21
90.44436046356634
 31
0.0
 11
-50.0
 21
90.43132470599214
 31
0.0
 11
-49.83749575944567
 21
90.41780168241478
 31
0.0
 11
-49.67532352087282
 21
90.39971328180941
 31
0.0
 11
-49.08544442138439
 21
90.2947707750357
 31
0.0
 11
-48.5
 21
90.12884677221851
 31
0.0
  0
SPLINE
  5
121
330
1F
100
AcDbEntity
  8
1
  6
Continuous
 62
     7
100
AcDbSpline
210
0.0
220
0.0
230
1.0
 70
     8
 71
     3
 72
    15
 73
    11
 74
     9
 42
0.000000001
 43
0.0000000001
 44
0.00000001
 40
0.0
 40
0.0
 40
0.0
 40
0.0
 40
0.1729125158485375
 40
0.3451014960177811
 40
0.6737245390823108
 40
1.001243725622988
 40
1.573623215995193
 40
2.151310594865401
 40
2.342579812705517
 40
2.535176229865814
 40
2.535176229865814
 40
2.535176229865814
 40
2.535176229865814
 10
-50.99999999999479
 20
95.16975190853633
 30
0.0
 10
-50.94260472505408
 20
95.17507717038984
 30
0.0
 10
-50.82805433889078
 20
95.18570539660156
 30
0.0
 10
-50.60379531923926
 20
95.19833723237085
 30
0.0
 10
-50.3275715749192
 20
95.20276504512745
 30
0.0
 10
-49.91821628073308
 20
95.18600281693273
 30
0.0
 10
-49.42827392727526
 20
95.12786049937253
 30
0.0
 10
-48.99094402017928
 20
95.03140687472002
 30
0.0
 10
-48.68264999230671
 20
94.9435414131467
 30
0.0
 10
-48.5610235021264
 20
94.90376080533134
 30
0.0
 10
-48.5
 20
94.88380172463728
 30
0.0
 11
-50.99999999999479
 21
95.16975190853633
 31
0.0
 11
-50.8277334194452
 21
95.18468386916405
 31
0.0
 11
-50.65583082126102
 21
95.19461068879546
 31
0.0
 11
-50.32724634856057
 21
95.19964548194882
 31
0.0
 11
-50.0
 21
95.18627965841092
 31
0.0
 11
-49.43161280047627
 21
95.118794300695
 31
0.0
 11
-48.86730810677042
 21
94.99517018690403
 31
0.0
 11
-48.68343523414646
 21
94.9424949508381
 31
0.0
 11
-48.5
 21
94.88380172463728
 31
0.0
  0
SPLINE
  5
122
330
1F
100
AcDbEntity
  8
1
  6
Continuous
 62
     7
100
AcDbSpline
210
0.0
220
0.0
230
1.0
 70
     8
 71
     3
 72
     9
 73
     5
 74
     3
 42
0.000000001
 43
0.0000000001
 44
0.00000001
 40
0.0
 40
0.0
 40
0.0
 40
0.0
 40
0.2536956242796538
 40
0.5051628937764924
 40
0.5051628937764924
 40
0.5051628937764924
 40
0.5051628937764924
 10
-51.50000000000001
 20
90.3434903900548
 30
0.0
 10
-51.4166614527508
 20
90.35796988886318
 30
0.0
 10
-51.25071636569155
 20
90.38680168493866
 30
0.0
 10
-51.08332599414793
 20
90.40549268864343
 30
0.0
 10
-51.00000000000001
 20
90.41479695611702
 30
0.0
 11
-51.50000000000001
 21
90.3434903900548
 31
0.0
 11
-51.24961984078729
 21
90.38437126277228
 31
0.0
 11
-51.00000000000001
 21
90.41479695611702
 31
0.0
  0
SPLINE
  5
123
330
1F
100
AcDbEntity
  8
1
  6
Continuous
 62
     7
100
AcDbSpline
210
0.0
220
0.0
230
1.0
 70
     8
 71
     3
 72
     9
 73
     5
 74
     3
 42
0.000000001
 43
0.0000000001
 44
0.00000001
 40
0.0
 40
0.0
 40
0.0
 40
0.0
 40
0.2536956242796913
 40
0.505162893776491
 40
0.505162893776491
 40
0.505162893776491
 40
0.505162893776491
 10
-51.50000000000001
 20
95.09844534247358
 30
0.0
 10
-51.41666145275078
 20
95.11292484128194
 30
0.0
 10
-51.25071636569154
 20
95.14175663735746
 30
0.0
 10
-51.0833259941479
 20
95.16044764106216
 30
0.0
 10
-51.00000000000001
 20
95.1697519085358
 30
0.0
 11
-51.50000000000001
 21
95.09844534247358
 31
0.0
 11
-51.24961984078725
 21
95.13932621519103
 31
0.0
 11
-51.00000000000001
 21
95.1697519085358
 31
0.0
  0
SPLINE
  5
124
102
{ACAD_REACTORS
330
187
102
}
330
1F
100
AcDbEntity
  8
1
  6
Continuous
 62
     2
100
AcDbSpline
210
0.0
220
0.0
230
1.0
 70
     8
 71
     3
 72
     9
 73
     5
 74
     3
 42
0.000000001
 43
0.0000000001
 44
0.00000001
 40
0.0
 40
0.0
 40
0.0
 40
0.0
 40
0.5264875973168359
 40
1.053204661843189
 40
1.053204661843189
 40
1.053204661843189
 40
1.053204661843189
 10
-50.79999999999997
 20
78.9567496319734
 30
0.0
 10
-50.62438922223463
 20
78.96879994533624
 30
0.0
 10
-50.27309112756431
 20
78.99290580422027
 30
0.0
 10
-49.92438903323833
 20
78.94392946764309
 30
0.0
 10
-49.74999999999999
 20
78.9194359540538
 30
0.0
 11
-50.79999999999997
 21
78.9567496319734
 31
0.0
 11
-50.27381638367783
 21
78.97463797381192
 31
0.0
 11
-49.74999999999999
 21
78.9194359540538
 31
0.0
  0
SPLINE
  5
125
330
1F
100
AcDbEntity
  8
1
  6
Continuous
 62
     2
100
AcDbSpline
210
0.0
220
0.0
230
1.0
 70
     8
 71
     3
 72
     9
 73
     5
 74
     3
 42
0.000000001
 43
0.0000000001
 44
0.00000001
 40
0.0
 40
0.0
 40
0.0
 40
0.0
 40
0.2382266295490273
 40
0.4762927244122358
 40
0.4762927244122358
 40
0.4762927244122358
 40
0.4762927244122358
 10
-49.74999999999999
 20
78.9194359540538
 30
0.0
 10
-49.67086650183911
 20
78.91280046558498
 30
0.0
 10
-49.51265282997466
 20
78.89953398006946
 30
0.0
 10
-49.35419980823557
 20
78.88952376994119
 30
0.0
 10
-49.27500000000002
 20
78.88452036182181
 30
0.0
 11
-49.74999999999999
 21
78.9194359540538
 31
0.0
 11
-49.51253962690357
 21
78.90034411632507
 31
0.0
 11
-49.27500000000002
 21
78.88452036182181
 31
0.0
  0
SPLINE
  5
126
102
{ACAD_REACTORS
330
186
102
}
330
1F
100
AcDbEntity
  8
1
  6
Continuous
 62
     2
100
AcDbSpline
210
0.0
220
0.0
230
1.0
 70
     8
 71
     3
 72
     9
 73
     5
 74
     3
 42
0.000000001
 43
0.0000000001
 44
0.00000001
 40
0.0
 40
0.0
 40
0.0
 40
0.0
 40
0.5256391982416478
 40
1.051302078141067
 40
1.051302078141067
 40
1.051302078141067
 40
1.051302078141067
 10
-47.24999999999999
 20
78.8821222761341
 30
0.0
 10
-47.07467848946157
 20
78.87918270048264
 30
0.0
 10
-46.72402756997419
 20
78.87330343671829
 30
0.0
 10
-46.37467847945439
 20
78.90405821069729
 30
0.0
 10
-46.20000000000001
 20
78.9194359540538
 30
0.0
 11
-47.24999999999999
 21
78.8821222761341
 31
0.0
 11
-46.72436091097027
 21
78.88246165599188
 31
0.0
 11
-46.20000000000001
 21
78.9194359540538
 31
0.0
  0
ARC
  5
127
102
{ACAD_REACTORS
330
182
102
}
330
1F
100
AcDbEntity
  8
1
  6
Continuous
 62
     7
100
AcDbCircle
 10
-7.82851632229534
 20
5.03874991991631
 30
0.0
 40
0.1666666666666252
100
AcDbArc
 50
180.0
 51
299.9816393688506
  0
ARC
  5
128
102
{ACAD_REACTORS
330
182
102
}
330
1F
100
AcDbEntity
  8
1
  6
Continuous
 62
     7
100
AcDbCircle
 10
-7.82851632229534
 20
7.46125008008369
 30
0.0
 40
0.1666666666666874
100
AcDbArc
 50
60.01836063114941
 51
180.0
  0
ARC
  5
129
330
1F
100
AcDbEntity
  8
1
  6
Continuous
 62
     7
100
AcDbCircle
 10
-4.99527555584871
 20
6.25
 30
0.0
 40
0.0833333333333293
100
AcDbArc
 50
299.9816393688334
 51
60.01836063114615
  0
ARC
  5
12A
330
1F
100
AcDbEntity
  8
1
  6
Continuous
 62
     7
100
AcDbCircle
 10
-13.32842375540861
 20
6.25
 30
0.0
 40
0.0833333333333053
100
AcDbArc
 50
119.9816393688866
 51
240.0183606311338
  0
ARC
  5
12B
102
{ACAD_REACTORS
330
184
102
}
330
1F
100
AcDbEntity
  8
1
  6
Continuous
 62
     7
100
AcDbCircle
 10
-10.32851632229534
 20
5.13501057401635
 30
0.0
 40
0.3333333333333215
100
AcDbArc
 50
180.0000000000104
 51
240.0183606311564
  0
ARC
  5
12C
102
{ACAD_REACTORS
330
185
102
}
330
1F
100
AcDbEntity
  8
1
  6
Continuous
 62
     7
100
AcDbCircle
 10
-9.16184965562866
 20
6.41666666666663
 30
0.0
 40
0.0833333333333545
100
AcDbArc
 50
209.9999999999622
 51
330.0000000000177
  0
MTEXT
  5
12E
330
1F
100
AcDbEntity
  8
1
 62
     7
100
AcDbMText
 10
-20.16184965562864
 20
5.03031971037803
 30
0.0
 40
2.25
 41
0.0
 71
     5
 72
     1
  1
2:1
  7
CONVERTER_11
 73
     1
 44
1.32052821128451
  0
MTEXT
  5
12F
330
1F
100
AcDbEntity
  8
1
 62
     7
100
AcDbMText
 10
-20.16184965562864
 20
8.13031971037799
 30
0.0
 40
1.5
 41
0.0
 71
     5
 72
     1
  1
Scale
  7
CONVERTER_11
 73
     1
 44
1.32052821128451
  0
MTEXT
  5
131
330
1F
100
AcDbEntity
  8
1
 62
     7
100
AcDbMText
 10
-76.36184965562863
 20
6.25
 30
0.0
 40
2.25
 41
0.0
 71
     4
 72
     1
  1
CX MLF\Pfemale contact 1/1,5mm MOST
  7
CONVERTER_12
 73
     1
 44
0.90036014405762
  0
MTEXT
  5
132
330
1F
100
AcDbEntity
  8
1
 62
     7
100
AcDbMText
 10
-88.2
 20
4.375
 30
0.0
 40
1.5
 41
0.0
 71
     4
 72
     1
  1
T.Tedeschi
  7
CONVERTER_11
 73
     1
 44
1.32052821128451
  0
MTEXT
  5
133
330
1F
100
AcDbEntity
  8
1
 62
     7
100
AcDbMText
 10
-93.49999999999999
 20
4.375
 30
0.0
 40
1.5
 41
0.0
 71
     4
 72
     1
  1
Sign.
  7
CONVERTER_11
 73
     1
 44
1.32052821128451
  0
MTEXT
  5
134
330
1F
100
AcDbEntity
  8
1
 62
     7
100
AcDbMText
 10
-88.2
 20
8.13031971037799
 30
0.0
 40
1.5
 41
0.0
 71
     4
 72
     1
  1
24/02/09
  7
CONVERTER_11
 73
     1
 44
1.32052821128451
  0
MTEXT
  5
135
330
1F
100
AcDbEntity
  8
1
 62
     7
100
AcDbMText
 10
-93.49999999999999
 20
8.13031971037799
 30
0.0
 40
1.5
 41
0.0
 71
     4
 72
     1
  1
Date
  7
CONVERTER_11
 73
     1
 44
1.32052821128451
  0
MTEXT
  5
136
330
1F
100
AcDbEntity
  8
1
 62
     7
100
AcDbMText
 10
-97.00000000000004
 20
75.7499999999999
 30
0.0
 40
2.0
 41
0.0
 71
     5
 72
     1
  1
Diritti riservati      All rights reserved
  7
CONVERTER_11
 11
0.0
 21
1.0
 31
0.0
 73
     1
 44
1.32052821128451
  0
DIMENSION
  5
144
330
1F
100
AcDbEntity
  8
1
100
AcDbDimension
  2
*D1
 10
-49.27500000000002
 20
67.5543082782997
 30
0.0
 11
-41.2824409239343
 21
69.3793082782997
 31
0.0
 70
    32
  1
<>
 71
     5
 42
-1.0
 53
0.00013888888889
  3
ME10_DIM_10
100
AcDbAlignedDimension
 13
-47.72500000000001
 23
75.78853543763601
 33
0.0
 14
-49.27500000000002
 24
75.78853543763601
 34
0.0
100
AcDbRotatedDimension
  0
DIMENSION
  5
152
330
1F
100
AcDbEntity
  8
1
100
AcDbDimension
  2
*D2
 10
-50.79999999999997
 20
61.68415589396399
 30
0.0
 11
-40.8710345436532
 21
63.50915589396399
 31
0.0
 70
    32
  1
<>
 71
     5
 42
-1.0
 53
0.00013888888889
  3
ME10_DIM_11
100
AcDbAlignedDimension
 13
-46.20000000000001
 23
72.78853543763601
 33
0.0
 14
-50.79999999999997
 24
72.78853543763601
 34
0.0
100
AcDbRotatedDimension
  0
DIMENSION
  5
15D
330
1F
100
AcDbEntity
  8
1
100
AcDbDimension
  2
*D3
 10
-51.50000000000001
 20
103.127668744717
 30
0.0
 11
-48.5
 21
104.877668744717
 31
0.0
 70
    32
  1
<>
 71
     5
 42
-1.0
 53
0.00013888888889
  3
ME10_DIM_12
100
AcDbAlignedDimension
 13
-45.49999999999999
 23
98.488533437636
 33
0.0
 14
-51.50000000000001
 24
98.488533437636
 34
0.0
100
AcDbRotatedDimension
  0
DIMENSION
  5
169
330
1F
100
AcDbEntity
  8
1
100
AcDbDimension
  2
*D4
 10
-37.3947724581849
 20
98.988535437636
 30
0.0
 11
-37.3947724581849
 21
85.88853543763602
 31
0.0
 70
    32
  1
<>
 71
     5
 42
-1.0
 53
0.00013888888889
  3
ME10_DIM_13
100
AcDbAlignedDimension
 13
-46.20000000000001
 23
72.78853543763601
 33
0.0
 14
-45.99999999999999
 24
98.988535437636
 34
0.0
 50
90.0
100
AcDbRotatedDimension
  0
DIMENSION
  5
175
330
1F
100
AcDbEntity
  8
1
100
AcDbDimension
  2
*D5
 10
-57.6581600752564
 20
82.58853543763603
 30
0.0
 11
-57.6581600752564
 21
77.68853543763602
 31
0.0
 70
    32
  1
<>
 71
     5
 42
-1.0
 53
0.00013888888889
  3
ME10_DIM_14
100
AcDbAlignedDimension
 13
-50.79999999999997
 23
72.78853543763601
 33
0.0
 14
-51.15000000000001
 24
82.58853543763603
 34
0.0
 50
90.0
100
AcDbRotatedDimension
  0
DIMENSION
  5
181
330
1F
100
AcDbEntity
  8
1
100
AcDbDimension
  2
*D6
 10
-73.4192258818286
 20
121.1180281613772
 30
0.0
 11
-73.4192258818286
 21
115.1180281613772
 31
0.0
 70
    32
  1
<>
 71
     5
 42
-1.0
 53
0.00013888888889
  3
ME10_DIM_15
100
AcDbAlignedDimension
 13
-80.12329174230318
 23
109.1180281613772
 33
0.0
 14
-79.52329174230317
 24
121.1180281613772
 34
0.0
 50
90.0
100
AcDbRotatedDimension
  0
HATCH
  5
182
330
1F
100
AcDbEntity
  8
1
  6
Continuous
 62
     7
100
AcDbHatch
 10
0.0
 20
0.0
 30
0.0
210
0.0
220
0.0
230
1.0
  2
SOLID
 70
     1
 71
     1
 91
        1
 92
        1
 93
       14
 72
     1
 10
-7.245136731210265
 20
6.93227043112688
 11
-7.661849655628655
 21
7.17268173367597
 72
     1
 10
-7.661849655628655
 20
7.17268173367597
 11
-7.661849655628655
 21
6.41666666666663
 72
     1
 10
-7.661849655628655
 20
6.41666666666663
 11
-7.161849655628655
 21
6.41666666666663
 72
     2
 10
-7.161849655628655
 20
6.25
 40
0.1666666666666847
 50
270.0
 51
450.0
 73
     0
 72
     1
 10
-7.161849655628655
 20
6.083333333333315
 11
-7.661849655628655
 21
6.083333333333315
 72
     1
 10
-7.661849655628655
 20
6.083333333333315
 11
-7.661849655628655
 21
5.32731826632397
 72
     1
 10
-7.661849655628655
 20
5.32731826632397
 11
-7.245136731210265
 21
5.56772956887312
 72
     2
 10
-7.161849655628655
 20
5.423365304531615
 40
0.1666666666666572
 50
240.0183606311588
 51
420.0183606311674
 73
     0
 72
     1
 10
-7.078562580047105
 20
5.279001040190165
 11
-7.745229246713735
 21
4.894385655574865
 72
     2
 10
-7.828516322295345
 20
5.038749919916315
 40
0.1666666666666252
 50
60.01836063114943
 51
180.0
 73
     0
 72
     1
 10
-7.99518298896197
 20
5.038749919916315
 11
-7.99518298896197
 21
7.461250080083685
 72
     2
 10
-7.828516322295345
 20
7.461250080083685
 40
0.1666666666666874
 50
180.0
 51
299.9816393688506
 73
     0
 72
     1
 10
-7.745229246713735
 20
7.605614344425135
 11
-7.078562580047105
 21
7.22099895980972
 72
     2
 10
-7.161849655628655
 20
7.07663469546833
 40
0.1666666666666886
 50
299.9816393688428
 51
479.9816393688507
 73
     0
 97
       14
330
8B
330
128
330
A2
330
127
330
84
330
EB
330
85
330
86
330
87
330
EC
330
88
330
89
330
8A
330
ED
 75
     0
 76
     1
 98
        1
 10
0.0
 20
0.0
  0
HATCH
  5
183
330
1F
100
AcDbEntity
  8
1
  6
Continuous
 62
     7
100
AcDbHatch
 10
0.0
 20
0.0
 30
0.0
210
0.0
220
0.0
230
1.0
  2
SOLID
 70
     1
 71
     1
 91
        1
 92
        1
 93
        5
 72
     1
 10
-10.99518298896203
 20
7.07663469546833
 11
-10.99518298896203
 21
5.51962595863165
 72
     1
 10
-10.99518298896203
 20
5.51962595863165
 11
-10.99518298896203
 21
5.423365304531615
 72
     2
 10
-11.16184965562866
 20
5.423365304531615
 40
0.1666666666666785
 50
0.0
 51
180.0
 73
     0
 72
     1
 10
-11.32851632229534
 20
5.423365304531615
 11
-11.32851632229534
 21
7.07663469546833
 72
     2
 10
-11.16184965562866
 20
7.07663469546833
 40
0.1666666666666305
 50
180.0
 51
360.0
 73
     0
 97
        5
330
8E
330
8D
330
EE
330
8C
330
EF
 75
     0
 76
     1
 98
        1
 10
0.0
 20
0.0
  0
HATCH
  5
184
330
1F
100
AcDbEntity
  8
1
  6
Continuous
 62
     7
100
AcDbHatch
 10
0.0
 20
0.0
 30
0.0
210
0.0
220
0.0
230
1.0
  2
SOLID
 70
     1
 71
     1
 91
        1
 92
        1
 93
        7
 72
     1
 10
-10.32851632229534
 20
7.461250080083685
 11
-10.32851632229534
 21
5.13501057401635
 72
     1
 10
-10.32851632229534
 20
5.13501057401635
 11
-9.245229246713736
 21
4.510037261180798
 72
     2
 10
-9.328516322295345
 20
4.365672996839351
 40
0.1666666666666837
 50
299.9816393688506
 51
479.9816393688495
 73
     0
 72
     1
 10
-9.41180339787695
 20
4.221308732497903
 11
-10.49509047345851
 21
4.846282045333453
 72
     2
 10
-10.32851632229534
 20
5.13501057401635
 40
0.3333333333333215
 50
119.9816393688436
 51
179.9999999999896
 73
     0
 72
     1
 10
-10.66184965562866
 20
5.13501057401629
 11
-10.66184965562866
 21
7.461250080083685
 72
     2
 10
-10.49518298896203
 20
7.461250080083685
 40
0.1666666666666909
 50
180.0
 51
360.0
 73
     0
 97
        7
330
91
330
90
330
F0
330
8F
330
12B
330
92
330
F1
 75
     0
 76
     1
 98
        1
 10
0.0
 20
0.0
  0
HATCH
  5
185
330
1F
100
AcDbEntity
  8
1
  6
Continuous
 62
     7
100
AcDbHatch
 10
0.0
 20
0.0
 30
0.0
210
0.0
220
0.0
230
1.0
  2
SOLID
 70
     1
 71
     1
 91
        1
 92
        1
 93
       16
 72
     2
 10
-9.86269988272437
 20
7.865608656017285
 40
0.1324831062376642
 50
30.00000000001384
 51
180.0
 73
     1
 72
     1
 10
-9.99518298896203
 20
7.865608656017285
 11
-9.99518298896203
 21
6.25
 72
     1
 10
-9.99518298896203
 20
6.25
 11
-9.99518298896203
 21
5.423792536316455
 72
     2
 10
-9.828516322295345
 20
5.423792536316455
 40
0.1666666666666856
 50
180.0
 51
360.0
 73
     1
 72
     1
 10
-9.661849655628655
 20
5.423792536316455
 11
-9.661849655628655
 21
6.25
 72
     1
 10
-9.661849655628655
 20
6.25
 11
-9.661849655628655
 21
7.11602540378442
 72
     1
 10
-9.661849655628655
 20
7.11602540378442
 11
-9.234018439277405
 21
6.375
 72
     2
 10
-9.161849655628655
 20
6.41666666666663
 40
0.0833333333333545
 50
209.9999999999622
 51
330.0000000000177
 73
     1
 72
     1
 10
-9.089680871979965
 20
6.375
 11
-8.661849655628655
 21
7.11602540378442
 72
     1
 10
-8.661849655628655
 20
7.11602540378442
 11
-8.661849655628655
 21
6.25
 72
     1
 10
-8.661849655628655
 20
6.25
 11
-8.661849655628655
 21
4.654134535300898
 72
     2
 10
-8.49518298896197
 20
4.654134535300898
 40
0.1666666666666856
 50
180.0
 51
360.0
 73
     1
 72
     1
 10
-8.328516322295345
 20
4.654134535300898
 11
-8.328516322295345
 21
7.865608656017285
 72
     2
 10
-8.460999428533
 20
7.865608656017285
 40
0.1324831062376557
 50
0.0
 51
149.9999999999743
 73
     1
 72
     1
 10
-8.57573316410702
 20
7.931850209136145
 11
-9.161849655628655
 21
6.91666666666663
 72
     1
 10
-9.161849655628655
 20
6.91666666666663
 11
-9.747966147150295
 21
7.931850209136145
 97
       16
330
93
330
F2
330
94
330
F3
330
95
330
A1
330
A0
330
12C
330
9F
330
9E
330
96
330
F4
330
97
330
99
330
F5
330
98
 75
     0
 76
     1
 98
        1
 10
0.0
 20
0.0
  0
HATCH
  5
186
330
1F
100
AcDbEntity
  8
1
  6
Continuous
 62
     3
100
AcDbHatch
 10
0.0
 20
0.0
 30
0.0
210
0.0
220
0.0
230
1.0
  2
_USER
 70
     0
 71
     1
 91
        1
 92
        1
 93
       10
 72
     1
 10
-46.20000000000001
 20
76.98853543763603
 11
-46.40001
 21
76.98853543763603
 72
     1
 10
-46.40001
 20
76.98853543763603
 11
-46.40000999999997
 21
76.78853543763601
 72
     1
 10
-46.40000999999997
 20
76.78853543763601
 11
-46.20000000000001
 21
76.78853543763601
 72
     1
 10
-46.20000000000001
 20
76.78853543763601
 11
-46.20000000000001
 21
72.78853543763601
 72
     1
 10
-46.20000000000001
 20
72.78853543763601
 11
-46.24999999999999
 21
72.78853543763601
 72
     1
 10
-46.24999999999999
 20
72.78853543763601
 11
-47.24999999999999
 21
73.78853543763601
 72
     1
 10
-47.24999999999999
 20
73.78853543763601
 11
-47.24999999999999
 21
76.28853543763601
 72
     1
 10
-47.24999999999999
 20
76.28853543763601
 11
-47.24999999999999
 21
78.8821222761341
 72
     4
 94
        3
 73
     0
 74
     0
 95
        9
 96
        5
 40
0.0
 40
0.0
 40
0.0
 40
0.0
 40
0.5256391982416478
 40
1.051302078141067
 40
1.051302078141067
 40
1.051302078141067
 40
1.051302078141067
 10
-47.24999999999999
 20
78.8821222761341
 10
-47.07467848946157
 20
78.87918270048264
 10
-46.72402756997419
 20
78.87330343671829
 10
-46.37467847945439
 20
78.90405821069729
 10
-46.20000000000001
 20
78.9194359540538
 72
     1
 10
-46.20000000000001
 20
78.9194359540538
 11
-46.20000000000001
 21
76.98853543763603
 97
       10
330
126
330
5E
330
D7
330
D4
330
DC
330
CD
330
D5
330
D6
330
D3
330
DA
 75
     1
 76
     0
 52
45.0
 41
1.0
 77
     0
 78
     1
 53
45.0
 43
0.0
 44
0.0
 45
-0.7071067811865475
 46
0.7071067811865476
 79
     0
 98
        1
 10
0.0
 20
0.0
  0
HATCH
  5
187
330
1F
100
AcDbEntity
  8
1
  6
Continuous
 62
     3
100
AcDbHatch
 10
0.0
 20
0.0
 30
0.0
210
0.0
220
0.0
230
1.0
  2
_USER
 70
     0
 71
     1
 91
        1
 92
        1
 93
       10
 72
     1
 10
-49.74999999999999
 20
76.28853543763601
 11
-49.74999999999999
 21
78.9194359540538
 72
     4
 94
        3
 73
     0
 74
     0
 95
        9
 96
        5
 40
0.0
 40
0.0
 40
0.0
 40
0.0
 40
0.5267170645263528
 40
1.053204661843189
 40
1.053204661843189
 40
1.053204661843189
 40
1.053204661843189
 10
-49.74999999999999
 20
78.9194359540538
 10
-49.92438903323833
 20
78.94392946764309
 10
-50.27309112756431
 20
78.99290580422027
 10
-50.62438922223463
 20
78.96879994533624
 10
-50.79999999999997
 20
78.9567496319734
 72
     1
 10
-50.79999999999997
 20
78.9567496319734
 11
-50.79999999999997
 21
76.98853543763603
 72
     1
 10
-50.79999999999997
 20
76.98853543763603
 11
-50.59999000000001
 21
76.98853543763603
 72
     1
 10
-50.59999000000001
 20
76.98853543763603
 11
-50.59998999999995
 21
76.78853543763601
 72
     1
 10
-50.59998999999995
 20
76.78853543763601
 11
-50.79999999999997
 21
76.78853543763601
 72
     1
 10
-50.79999999999997
 20
76.78853543763601
 11
-50.79999999999997
 21
72.78853543763601
 72
     1
 10
-50.79999999999997
 20
72.78853543763601
 11
-50.74999999999999
 21
72.78853543763601
 72
     1
 10
-50.74999999999999
 20
72.78853543763601
 11
-49.74999999999999
 21
73.78853543763601
 72
     1
 10
-49.74999999999999
 20
73.78853543763601
 11
-49.74999999999999
 21
76.28853543763601
 97
       10
330
61
330
124
330
D9
330
D8
330
D1
330
D0
330
C6
330
CC
330
CE
330
CF
 75
     1
 76
     0
 52
45.0
 41
1.0
 77
     0
 78
     1
 53
45.0
 43
0.0
 44
0.0
 45
-0.7071067811865475
 46
0.7071067811865476
 79
     0
 98
        1
 10
0.0
 20
0.0
  0
HATCH
  5
188
330
1F
100
AcDbEntity
  8
1
  6
Continuous
 62
     2
100
AcDbHatch
 10
0.0
 20
0.0
 30
0.0
210
0.0
220
0.0
230
1.0
  2
SOLID
 70
     1
 71
     1
 91
        1
 92
        1
 93
        4
 72
     1
 10
-81.72329174230318
 20
121.1180281613772
 11
-81.72329174230316
 21
129.1109927506106
 72
     1
 10
-81.72329174230316
 20
129.1109927506106
 11
-79.52329174230319
 21
129.8665483061661
 72
     1
 10
-79.52329174230319
 20
129.8665483061661
 11
-79.52329174230317
 21
121.1180281613772
 72
     1
 10
-79.52329174230317
 20
121.1180281613772
 11
-81.72329174230318
 21
121.1180281613772
 97
        4
330
E3
330
DD
330
E2
330
E1
 75
     0
 76
     1
 98
        1
 10
0.0
 20
0.0
  0
ENDSEC
  0
SECTION
  2
OBJECTS
  0
DICTIONARY
  5
C
330
0
100
AcDbDictionary
281
     1
  3
ACAD_GROUP
350
D
  3
ACAD_LAYOUT
350
1A
  3
ACAD_MATERIAL
350
3B
  3
ACAD_MLEADERSTYLE
350
18B
  3
ACAD_MLINESTYLE
350
17
  3
ACAD_PLOTSETTINGS
350
19
  3
ACAD_PLOTSTYLENAME
350
E
  3
ACAD_VISUALSTYLE
350
2A
  3
AcDbVariableDictionary
350
189
  0
DICTIONARY
  5
D
102
{ACAD_REACTORS
330
C
102
}
330
C
100
AcDbDictionary
281
     1
  0
DICTIONARY
  5
1A
102
{ACAD_REACTORS
330
C
102
}
330
C
100
AcDbDictionary
281
     1
  3
Layout1
350
1E
  3
Layout2
350
26
  3
Model
350
22
  0
DICTIONARY
  5
3B
102
{ACAD_REACTORS
330
C
102
}
330
C
100
AcDbDictionary
281
     1
  3
ByBlock
350
3D
  3
ByLayer
350
3C
  3
Global
350
3E
  0
DICTIONARY
  5
18B
102
{ACAD_REACTORS
330
C
102
}
330
C
100
AcDbDictionary
281
     1
  0
DICTIONARY
  5
17
102
{ACAD_REACTORS
330
C
102
}
330
C
100
AcDbDictionary
281
     1
  3
Standard
350
18
  0
DICTIONARY
  5
19
102
{ACAD_REACTORS
330
C
102
}
330
C
100
AcDbDictionary
281
     1
  0
ACDBDICTIONARYWDFLT
  5
E
102
{ACAD_REACTORS
330
C
102
}
330
C
100
AcDbDictionary
281
     1
  3
Normal
350
F
100
AcDbDictionaryWithDefault
340
F
  0
DICTIONARY
  5
2A
102
{ACAD_REACTORS
330
C
102
}
330
C
100
AcDbDictionary
281
     1
  3
2dWireframe
350
2F
  3
3D Hidden
350
31
  3
3dWireframe
350
30
  3
Basic
350
32
  3
Brighten
350
36
  3
ColorChange
350
3A
  3
Conceptual
350
34
  3
Dim
350
35
  3
Facepattern
350
39
  3
Flat
350
2B
  3
FlatWithEdges
350
2C
  3
Gouraud
350
2D
  3
GouraudWithEdges
350
2E
  3
Linepattern
350
38
  3
Realistic
350
33
  3
Thicken
350
37
  0
DICTIONARY
  5
189
102
{ACAD_REACTORS
330
C
102
}
330
C
100
AcDbDictionary
281
     1
  3
DIMASSOC
350
18C
  3
HIDETEXT
350
18D
  0
LAYOUT
  5
1E
102
{ACAD_REACTORS
330
1A
102
}
330
1A
100
AcDbPlotSettings
  1

  2
none_device
  4

  6

 40
0.0
 41
0.0
 42
0.0
 43
0.0
 44
0.0
 45
0.0
 46
0.0
 47
0.0
 48
0.0
 49
0.0
140
0.0
141
0.0
142
1.0
143
1.0
 70
   688
 72
     0
 73
     0
 74
     5
  7

 75
    16
147
1.0
148
0.0
149
0.0
100
AcDbLayout
  1
Layout1
 70
     1
 71
     1
 10
0.0
 20
0.0
 11
12.0
 21
9.0
 12
0.0
 22
0.0
 32
0.0
 14
1.00000000000000E+20
 24
1.00000000000000E+20
 34
1.00000000000000E+20
 15
-1.00000000000000E+20
 25
-1.00000000000000E+20
 35
-1.00000000000000E+20
146
0.0
 13
0.0
 23
0.0
 33
0.0
 16
1.0
 26
0.0
 36
0.0
 17
0.0
 27
1.0
 37
0.0
 76
     0
330
1B
  0
LAYOUT
  5
26
102
{ACAD_REACTORS
330
1A
102
}
330
1A
100
AcDbPlotSettings
  1

  2
none_device
  4

  6

 40
0.0
 41
0.0
 42
0.0
 43
0.0
 44
0.0
 45
0.0
 46
0.0
 47
0.0
 48
0.0
 49
0.0
140
0.0
141
0.0
142
1.0
143
1.0
 70
   688
 72
     0
 73
     0
 74
     5
  7

 75
    16
147
1.0
148
0.0
149
0.0
100
AcDbLayout
  1
Layout2
 70
     1
 71
     2
 10
0.0
 20
0.0
 11
0.0
 21
0.0
 12
0.0
 22
0.0
 32
0.0
 14
0.0
 24
0.0
 34
0.0
 15
0.0
 25
0.0
 35
0.0
146
0.0
 13
0.0
 23
0.0
 33
0.0
 16
1.0
 26
0.0
 36
0.0
 17
0.0
 27
1.0
 37
0.0
 76
     0
330
23
  0
LAYOUT
  5
22
102
{ACAD_REACTORS
330
1A
102
}
330
1A
100
AcDbPlotSettings
  1

  2
none_device
  4

  6

 40
0.0
 41
0.0
 42
0.0
 43
0.0
 44
0.0
 45
0.0
 46
0.0
 47
0.0
 48
0.0
 49
0.0
140
0.0
141
0.0
142
1.0
143
1.0
 70
  1712
 72
     0
 73
     0
 74
     0
  7

 75
     0
147
1.0
148
0.0
149
0.0
100
AcDbLayout
  1
Model
 70
     1
 71
     0
 10
0.0
 20
0.0
 11
12.0
 21
9.0
 12
0.0
 22
0.0
 32
0.0
 14
-105.0000000000001
 24
0.0
 34
0.0
 15
0.0
 25
148.5000000000001
 35
0.0
146
0.0
 13
0.0
 23
0.0
 33
0.0
 16
1.0
 26
0.0
 36
0.0
 17
0.0
 27
1.0
 37
0.0
 76
     0
330
1F
331
29
  0
MATERIAL
  5
3D
102
{ACAD_REACTORS
330
3B
102
}
102
{ACAD_XDICTIONARY
360
1B0
102
}
330
3B
100
AcDbMaterial
  1
ByBlock
  0
MATERIAL
  5
3C
102
{ACAD_REACTORS
330
3B
102
}
102
{ACAD_XDICTIONARY
360
1AE
102
}
330
3B
100
AcDbMaterial
  1
ByLayer
  0
MATERIAL
  5
3E
102
{ACAD_REACTORS
330
3B
102
}
102
{ACAD_XDICTIONARY
360
1B2
102
}
330
3B
100
AcDbMaterial
  1
Global
  0
MLINESTYLE
  5
18
102
{ACAD_REACTORS
330
17
102
}
330
17
100
AcDbMlineStyle
  2
Standard
 70
     0
  3

 62
   256
 51
90.0
 52
90.0
 71
     2
 49
0.5
 62
   256
  6
BYLAYER
 49
-0.5
 62
   256
  6
BYLAYER
  0
ACDBPLACEHOLDER
  5
F
102
{ACAD_REACTORS
330
E
102
}
330
E
  0
VISUALSTYLE
  5
2F
102
{ACAD_REACTORS
330
2A
102
}
102
{ACAD_XDICTIONARY
360
196
102
}
330
2A
100
AcDbVisualStyle
  2
2dWireframe
 70
     4
 71
     0
 72
     2
 73
     0
 90
        0
 40
-0.6
 41
-30.0
 62
     5
 63
     7
 74
     1
 91
        4
 64
     7
 65
   257
 75
     1
175
     1
 42
1.0
 92
        0
 66
   257
 43
1.0
 76
     1
 77
     6
 78
     2
 67
     7
 79
     5
170
     0
171
     0
290
     0
174
     0
 93
        1
 44
0.0
173
     0
291
     0
 45
0.0
1001
ACAD
1000
AcDbSavedByObjectVersion
1070
     0
  0
VISUALSTYLE
  5
31
102
{ACAD_REACTORS
330
2A
102
}
102
{ACAD_XDICTIONARY
360
19A
102
}
330
2A
100
AcDbVisualStyle
  2
3D Hidden
 70
     6
 71
     1
 72
     2
 73
     2
 90
        0
 40
-0.6
 41
-30.0
 62
     5
 63
     7
 74
     2
 91
        2
 64
     7
 65
   257
 75
     2
175
     1
 42
40.0
 92
        0
 66
   257
 43
1.0
 76
     1
 77
     6
 78
     2
 67
     7
 79
     3
170
     0
171
     0
290
     0
174
     0
 93
        1
 44
0.0
173
     0
291
     0
 45
0.0
1001
ACAD
1000
AcDbSavedByObjectVersion
1070
     0
  0
VISUALSTYLE
  5
30
102
{ACAD_REACTORS
330
2A
102
}
102
{ACAD_XDICTIONARY
360
198
102
}
330
2A
100
AcDbVisualStyle
  2
3dWireframe
 70
     5
 71
     0
 72
     2
 73
     0
 90
        0
 40
-0.6
 41
-30.0
 62
     5
 63
     7
 74
     1
 91
        4
 64
     7
 65
   257
 75
     1
175
     1
 42
1.0
 92
        0
 66
   257
 43
1.0
 76
     1
 77
     6
 78
     2
 67
     7
 79
     5
170
     0
171
     0
290
     0
174
     0
 93
        1
 44
0.0
173
     0
291
     0
 45
0.0
1001
ACAD
1000
AcDbSavedByObjectVersion
1070
     0
  0
VISUALSTYLE
  5
32
102
{ACAD_REACTORS
330
2A
102
}
102
{ACAD_XDICTIONARY
360
19C
102
}
330
2A
100
AcDbVisualStyle
  2
Basic
 70
     7
 71
     1
 72
     0
 73
     1
 90
        0
 40
-0.6
 41
-30.0
 62
     5
 63
     7
 74
     0
 91
        4
 64
     7
 65
   257
 75
     1
175
     1
 42
1.0
 92
        8
 66
     7
 43
1.0
 76
     1
 77
     6
 78
     2
 67
     7
 79
     5
170
     0
171
     0
290
     0
174
     0
 93
        1
 44
0.0
173
     0
291
     1
 45
0.0
1001
ACAD
1000
AcDbSavedByObjectVersion
1070
     0
  0
VISUALSTYLE
  5
36
102
{ACAD_REACTORS
330
2A
102
}
102
{ACAD_XDICTIONARY
360
1A4
102
}
330
2A
100
AcDbVisualStyle
  2
Brighten
 70
    12
 71
     2
 72
     2
 73
     0
 90
        0
 40
-0.6
 41
-30.0
 62
     5
 63
     7
 74
     1
 91
        4
 64
     7
 65
   257
 75
     1
175
     1
 42
1.0
 92
        8
 66
     7
 43
1.0
 76
     1
 77
     6
 78
     2
 67
     7
 79
     5
170
     0
171
     0
290
     0
174
     0
 93
        1
 44
50.0
173
     0
291
     1
 45
0.0
1001
ACAD
1000
AcDbSavedByObjectVersion
1070
     0
  0
VISUALSTYLE
  5
3A
102
{ACAD_REACTORS
330
2A
102
}
102
{ACAD_XDICTIONARY
360
1AC
102
}
330
2A
100
AcDbVisualStyle
  2
ColorChange
 70
    16
 71
     2
 72
     2
 73
     3
 90
        0
 40
-0.6
 41
-30.0
 62
     5
 63
     8
 74
     1
 91
        4
 64
     7
 65
   257
 75
     1
175
     1
 42
1.0
 92
        8
 66
     8
 43
1.0
 76
     1
 77
     6
 78
     2
 67
     7
 79
     5
170
     0
171
     0
290
     0
174
     0
 93
        1
 44
0.0
173
     0
291
     1
 45
0.0
1001
ACAD
1000
AcDbSavedByObjectVersion
1070
     0
  0
VISUALSTYLE
  5
34
102
{ACAD_REACTORS
330
2A
102
}
102
{ACAD_XDICTIONARY
360
1A0
102
}
330
2A
100
AcDbVisualStyle
  2
Conceptual
 70
     9
 71
     3
 72
     2
 73
     0
 90
        0
 40
-0.6
 41
-30.0
 62
     5
 63
     7
 74
     2
 91
        2
 64
     7
 65
   257
 75
     1
175
     1
 42
40.0
 92
        8
 66
     7
 43
1.0
 76
     1
 77
     6
 78
     2
 67
     7
 79
     3
170
     0
171
     0
290
     0
174
     0
 93
        1
 44
0.0
173
     0
291
     0
 45
0.0
1001
ACAD
1000
AcDbSavedByObjectVersion
1070
     0
  0
VISUALSTYLE
  5
35
102
{ACAD_REACTORS
330
2A
102
}
102
{ACAD_XDICTIONARY
360
1A2
102
}
330
2A
100
AcDbVisualStyle
  2
Dim
 70
    11
 71
     2
 72
     2
 73
     0
 90
        0
 40
-0.6
 41
-30.0
 62
     5
 63
     7
 74
     1
 91
        4
 64
     7
 65
   257
 75
     1
175
     1
 42
1.0
 92
        8
 66
     7
 43
1.0
 76
     1
 77
     6
 78
     2
 67
     7
 79
     5
170
     0
171
     0
290
     0
174
     0
 93
        1
 44
-50.0
173
     0
291
     1
 45
0.0
1001
ACAD
1000
AcDbSavedByObjectVersion
1070
     0
  0
VISUALSTYLE
  5
39
102
{ACAD_REACTORS
330
2A
102
}
102
{ACAD_XDICTIONARY
360
1AA
102
}
330
2A
100
AcDbVisualStyle
  2
Facepattern
 70
    15
 71
     2
 72
     2
 73
     0
 90
        0
 40
-0.6
 41
-30.0
 62
     5
 63
     7
 74
     1
 91
        4
 64
     7
 65
   257
 75
     1
175
     1
 42
1.0
 92
        8
 66
     7
 43
1.0
 76
     1
 77
     6
 78
     2
 67
     7
 79
     5
170
     0
171
     0
290
     0
174
     0
 93
        1
 44
0.0
173
     0
291
     1
 45
0.0
1001
ACAD
1000
AcDbSavedByObjectVersion
1070
     0
  0
VISUALSTYLE
  5
2B
102
{ACAD_REACTORS
330
2A
102
}
102
{ACAD_XDICTIONARY
360
18E
102
}
330
2A
100
AcDbVisualStyle
  2
Flat
 70
     0
 71
     2
 72
     1
 73
     1
 90
        2
 40
-0.6
 41
30.0
 62
     5
 63
     7
 74
     0
 91
        4
 64
     7
 65
   257
 75
     1
175
     1
 42
1.0
 92
        8
 66
     7
 43
1.0
 76
     1
 77
     6
 78
     2
 67
     7
 79
     5
170
     0
171
     0
290
     0
174
     0
 93
       13
 44
0.0
173
     0
291
     1
 45
0.0
1001
ACAD
1000
AcDbSavedByObjectVersion
1070
     0
  0
VISUALSTYLE
  5
2C
102
{ACAD_REACTORS
330
2A
102
}
102
{ACAD_XDICTIONARY
360
190
102
}
330
2A
100
AcDbVisualStyle
  2
FlatWithEdges
 70
     1
 71
     2
 72
     1
 73
     1
 90
        2
 40
-0.6
 41
30.0
 62
     5
 63
     7
 74
     1
 91
        4
 64
     7
 65
   257
 75
     1
175
     1
 42
1.0
 92
        0
 66
   257
 43
1.0
 76
     1
 77
     6
 78
     2
 67
     7
 79
     5
170
     0
171
     0
290
     0
174
     0
 93
       13
 44
0.0
173
     0
291
     1
 45
0.0
1001
ACAD
1000
AcDbSavedByObjectVersion
1070
     0
  0
VISUALSTYLE
  5
2D
102
{ACAD_REACTORS
330
2A
102
}
102
{ACAD_XDICTIONARY
360
192
102
}
330
2A
100
AcDbVisualStyle
  2
Gouraud
 70
     2
 71
     2
 72
     2
 73
     1
 90
        2
 40
-0.6
 41
30.0
 62
     5
 63
     7
 74
     0
 91
        4
 64
     7
 65
   257
 75
     1
175
     1
 42
1.0
 92
        0
 66
     7
 43
1.0
 76
     1
 77
     6
 78
     2
 67
     7
 79
     5
170
     0
171
     0
290
     0
174
     0
 93
       13
 44
0.0
173
     0
291
     1
 45
0.0
1001
ACAD
1000
AcDbSavedByObjectVersion
1070
     0
  0
VISUALSTYLE
  5
2E
102
{ACAD_REACTORS
330
2A
102
}
102
{ACAD_XDICTIONARY
360
194
102
}
330
2A
100
AcDbVisualStyle
  2
GouraudWithEdges
 70
     3
 71
     2
 72
     2
 73
     1
 90
        2
 40
-0.6
 41
30.0
 62
     5
 63
     7
 74
     1
 91
        4
 64
     7
 65
   257
 75
     1
175
     1
 42
1.0
 92
        0
 66
   257
 43
1.0
 76
     1
 77
     6
 78
     2
 67
     7
 79
     5
170
     0
171
     0
290
     0
174
     0
 93
       13
 44
0.0
173
     0
291
     1
 45
0.0
1001
ACAD
1000
AcDbSavedByObjectVersion
1070
     0
  0
VISUALSTYLE
  5
38
102
{ACAD_REACTORS
330
2A
102
}
102
{ACAD_XDICTIONARY
360
1A8
102
}
330
2A
100
AcDbVisualStyle
  2
Linepattern
 70
    14
 71
     2
 72
     2
 73
     0
 90
        0
 40
-0.6
 41
-30.0
 62
     5
 63
     7
 74
     1
 91
        4
 64
     7
 65
   257
 75
     7
175
     7
 42
1.0
 92
        8
 66
     7
 43
1.0
 76
     1
 77
     6
 78
     2
 67
     7
 79
     5
170
     0
171
     0
290
     0
174
     0
 93
        1
 44
0.0
173
     0
291
     1
 45
0.0
1001
ACAD
1000
AcDbSavedByObjectVersion
1070
     0
  0
VISUALSTYLE
  5
33
102
{ACAD_REACTORS
330
2A
102
}
102
{ACAD_XDICTIONARY
360
19E
102
}
330
2A
100
AcDbVisualStyle
  2
Realistic
 70
     8
 71
     2
 72
     2
 73
     0
 90
        0
 40
-0.6
 41
-30.0
 62
     5
 63
     7
 74
     1
 91
        0
 64
     7
 65
   257
 75
     1
175
     1
 42
1.0
 92
        8
 66
     8
 43
1.0
 76
     1
 77
     6
 78
     2
 67
     7
 79
     5
170
     0
171
     0
290
     0
174
     0
 93
       13
 44
0.0
173
     0
291
     0
 45
0.0
1001
ACAD
1000
AcDbSavedByObjectVersion
1070
     0
  0
VISUALSTYLE
  5
37
102
{ACAD_REACTORS
330
2A
102
}
102
{ACAD_XDICTIONARY
360
1A6
102
}
330
2A
100
AcDbVisualStyle
  2
Thicken
 70
    13
 71
     2
 72
     2
 73
     0
 90
        0
 40
-0.6
 41
-30.0
 62
     5
 63
     7
 74
     1
 91
        4
 64
     7
 65
   257
 75
     1
175
     1
 42
1.0
 92
       12
 66
     7
 43
1.0
 76
     1
 77
     6
 78
     2
 67
     7
 79
     5
170
     0
171
     0
290
     0
174
     0
 93
        1
 44
0.0
173
     0
291
     1
 45
0.0
1001
ACAD
1000
AcDbSavedByObjectVersion
1070
     0
  0
DICTIONARYVAR
  5
18C
102
{ACAD_REACTORS
330
189
102
}
330
189
100
DictionaryVariables
280
     0
  1
2
  0
DICTIONARYVAR
  5
18D
102
{ACAD_REACTORS
330
189
102
}
330
189
100
DictionaryVariables
280
     0
  1
1
  0
DICTIONARY
  5
1B0
330
3D
100
AcDbDictionary
280
     1
281
     1
  3
ACAD_XREC_ROUNDTRIP
360
1B1
  0
DICTIONARY
  5
1AE
330
3C
100
AcDbDictionary
280
     1
281
     1
  3
ACAD_XREC_ROUNDTRIP
360
1AF
  0
DICTIONARY
  5
1B2
330
3E
100
AcDbDictionary
280
     1
281
     1
  3
ACAD_XREC_ROUNDTRIP
360
1B3
  0
DICTIONARY
  5
196
330
2F
100
AcDbDictionary
280
     1
281
     1
  3
ACAD_XREC_ROUNDTRIP
360
197
  0
DICTIONARY
  5
19A
330
31
100
AcDbDictionary
280
     1
281
     1
  3
ACAD_XREC_ROUNDTRIP
360
19B
  0
DICTIONARY
  5
198
330
30
100
AcDbDictionary
280
     1
281
     1
  3
ACAD_XREC_ROUNDTRIP
360
199
  0
DICTIONARY
  5
19C
330
32
100
AcDbDictionary
280
     1
281
     1
  3
ACAD_XREC_ROUNDTRIP
360
19D
  0
DICTIONARY
  5
1A4
330
36
100
AcDbDictionary
280
     1
281
     1
  3
ACAD_XREC_ROUNDTRIP
360
1A5
  0
DICTIONARY
  5
1AC
330
3A
100
AcDbDictionary
280
     1
281
     1
  3
ACAD_XREC_ROUNDTRIP
360
1AD
  0
DICTIONARY
  5
1A0
330
34
100
AcDbDictionary
280
     1
281
     1
  3
ACAD_XREC_ROUNDTRIP
360
1A1
  0
DICTIONARY
  5
1A2
330
35
100
AcDbDictionary
280
     1
281
     1
  3
ACAD_XREC_ROUNDTRIP
360
1A3
  0
DICTIONARY
  5
1AA
330
39
100
AcDbDictionary
280
     1
281
     1
  3
ACAD_XREC_ROUNDTRIP
360
1AB
  0
DICTIONARY
  5
18E
330
2B
100
AcDbDictionary
280
     1
281
     1
  3
ACAD_XREC_ROUNDTRIP
360
18F
  0
DICTIONARY
  5
190
330
2C
100
AcDbDictionary
280
     1
281
     1
  3
ACAD_XREC_ROUNDTRIP
360
191
  0
DICTIONARY
  5
192
330
2D
100
AcDbDictionary
280
     1
281
     1
  3
ACAD_XREC_ROUNDTRIP
360
193
  0
DICTIONARY
  5
194
330
2E
100
AcDbDictionary
280
     1
281
     1
  3
ACAD_XREC_ROUNDTRIP
360
195
  0
DICTIONARY
  5
1A8
330
38
100
AcDbDictionary
280
     1
281
     1
  3
ACAD_XREC_ROUNDTRIP
360
1A9
  0
DICTIONARY
  5
19E
330
33
100
AcDbDictionary
280
     1
281
     1
  3
ACAD_XREC_ROUNDTRIP
360
19F
  0
DICTIONARY
  5
1A6
330
37
100
AcDbDictionary
280
     1
281
     1
  3
ACAD_XREC_ROUNDTRIP
360
1A7
  0
XRECORD
  5
1B1
102
{ACAD_REACTORS
330
1B0
102
}
330
1B0
100
AcDbXrecord
280
     1
102
MATERIAL
148
0.0
149
0.0
149
0.0
 93
        0
 94
      127
282
     0
 72
     1
 77
     1
171
     1
175
     1
179
     1
273
     0
  0
XRECORD
  5
1AF
102
{ACAD_REACTORS
330
1AE
102
}
330
1AE
100
AcDbXrecord
280
     1
102
MATERIAL
148
0.0
149
0.0
149
0.0
 93
        0
 94
      127
282
     0
 72
     1
 77
     1
171
     1
175
     1
179
     1
273
     0
  0
XRECORD
  5
1B3
102
{ACAD_REACTORS
330
1B2
102
}
330
1B2
100
AcDbXrecord
280
     1
102
MATERIAL
148
0.0
149
0.0
149
0.0
 93
        0
 94
      127
282
     0
 72
     1
 77
     1
171
     1
175
     1
179
     1
273
     0
  0
XRECORD
  5
197
102
{ACAD_REACTORS
330
196
102
}
330
196
100
AcDbXrecord
280
     1
102
RTVSPropertyOp0
 70
     1
102
RTVSPropertyOp1
 70
     1
102
RTVSPropertyOp2
 70
     1
102
RTVSPropertyOp3
 70
     1
102
RTVSPropertyOp4
 70
     1
102
RTVSPropertyOp5
 70
     1
102
RTVSPropertyOp6
 70
     1
102
RTVSPropertyOp7
 70
     1
102
RTVSPropertyOp8
 70
     1
102
RTVSPropertyOp9
 70
     1
102
RTVSPropertyOp10
 70
     1
102
RTVSPropertyOp11
 70
     1
102
RTVSPropertyOp12
 70
     1
102
RTVSPropertyOp13
 70
     1
102
RTVSPropertyOp14
 70
     1
102
RTVSPropertyOp15
 70
     1
102
RTVSPropertyOp16
 70
     1
102
RTVSPropertyOp17
 70
     1
102
RTVSPropertyOp18
 70
     1
102
RTVSPropertyOp19
 70
     1
102
RTVSPropertyOp20
 70
     1
102
RTVSPropertyOp21
 70
     1
102
RTVSPropertyOp22
 70
     1
102
RTVSPropertyOp23
 70
     1
102
RTVSPropertyOp24
 70
     1
102
RTVSPropertyOp25
 70
     1
102
RTVSPropertyOp26
 70
     1
102
RTVSPropertyOp27
 70
     1
102
RTVSPropertyOp28
 70
     1
102
RTVSPropertyOp29
 70
     1
102
RTVSPropertyOp30
 70
     1
102
RTVSPropertyOp31
 70
     1
102
RTVSPropertyOp32
 70
     1
  0
XRECORD
  5
19B
102
{ACAD_REACTORS
330
19A
102
}
330
19A
100
AcDbXrecord
280
     1
102
RTVSPropertyOp0
 70
     1
102
RTVSPropertyOp1
 70
     1
102
RTVSPropertyOp2
 70
     1
102
RTVSPropertyOp3
 70
     1
102
RTVSPropertyOp4
 70
     1
102
RTVSPropertyOp5
 70
     1
102
RTVSPropertyOp6
 70
     1
102
RTVSPropertyOp7
 70
     1
102
RTVSPropertyOp8
 70
     1
102
RTVSPropertyOp9
 70
     1
102
RTVSPropertyOp10
 70
     1
102
RTVSPropertyOp11
 70
     1
102
RTVSPropertyOp12
 70
     1
102
RTVSPropertyOp13
 70
     1
102
RTVSPropertyOp14
 70
     1
102
RTVSPropertyOp15
 70
     1
102
RTVSPropertyOp16
 70
     1
102
RTVSPropertyOp17
 70
     1
102
RTVSPropertyOp18
 70
     1
102
RTVSPropertyOp19
 70
     1
102
RTVSPropertyOp20
 70
     1
102
RTVSPropertyOp21
 70
     1
102
RTVSPropertyOp22
 70
     1
102
RTVSPropertyOp23
 70
     1
102
RTVSPropertyOp24
 70
     1
102
RTVSPropertyOp25
 70
     1
102
RTVSPropertyOp26
 70
     1
102
RTVSPropertyOp27
 70
     1
102
RTVSPropertyOp28
 70
     1
102
RTVSPropertyOp29
 70
     1
102
RTVSPropertyOp30
 70
     1
102
RTVSPropertyOp31
 70
     1
102
RTVSPropertyOp32
 70
     1
  0
XRECORD
  5
199
102
{ACAD_REACTORS
330
198
102
}
330
198
100
AcDbXrecord
280
     1
102
RTVSPropertyOp0
 70
     1
102
RTVSPropertyOp1
 70
     1
102
RTVSPropertyOp2
 70
     1
102
RTVSPropertyOp3
 70
     1
102
RTVSPropertyOp4
 70
     1
102
RTVSPropertyOp5
 70
     1
102
RTVSPropertyOp6
 70
     1
102
RTVSPropertyOp7
 70
     1
102
RTVSPropertyOp8
 70
     1
102
RTVSPropertyOp9
 70
     1
102
RTVSPropertyOp10
 70
     1
102
RTVSPropertyOp11
 70
     1
102
RTVSPropertyOp12
 70
     1
102
RTVSPropertyOp13
 70
     1
102
RTVSPropertyOp14
 70
     1
102
RTVSPropertyOp15
 70
     1
102
RTVSPropertyOp16
 70
     1
102
RTVSPropertyOp17
 70
     1
102
RTVSPropertyOp18
 70
     1
102
RTVSPropertyOp19
 70
     1
102
RTVSPropertyOp20
 70
     1
102
RTVSPropertyOp21
 70
     1
102
RTVSPropertyOp22
 70
     1
102
RTVSPropertyOp23
 70
     1
102
RTVSPropertyOp24
 70
     1
102
RTVSPropertyOp25
 70
     1
102
RTVSPropertyOp26
 70
     1
102
RTVSPropertyOp27
 70
     1
102
RTVSPropertyOp28
 70
     1
102
RTVSPropertyOp29
 70
     1
102
RTVSPropertyOp30
 70
     1
102
RTVSPropertyOp31
 70
     1
102
RTVSPropertyOp32
 70
     1
  0
XRECORD
  5
19D
102
{ACAD_REACTORS
330
19C
102
}
330
19C
100
AcDbXrecord
280
     1
102
RTVSPropertyOp0
 70
     1
102
RTVSPropertyOp1
 70
     1
102
RTVSPropertyOp2
 70
     1
102
RTVSPropertyOp3
 70
     1
102
RTVSPropertyOp4
 70
     1
102
RTVSPropertyOp5
 70
     1
102
RTVSPropertyOp6
 70
     1
102
RTVSPropertyOp7
 70
     1
102
RTVSPropertyOp8
 70
     1
102
RTVSPropertyOp9
 70
     1
102
RTVSPropertyOp10
 70
     1
102
RTVSPropertyOp11
 70
     1
102
RTVSPropertyOp12
 70
     1
102
RTVSPropertyOp13
 70
     1
102
RTVSPropertyOp14
 70
     1
102
RTVSPropertyOp15
 70
     1
102
RTVSPropertyOp16
 70
     1
102
RTVSPropertyOp17
 70
     1
102
RTVSPropertyOp18
 70
     1
102
RTVSPropertyOp19
 70
     1
102
RTVSPropertyOp20
 70
     1
102
RTVSPropertyOp21
 70
     1
102
RTVSPropertyOp22
 70
     1
102
RTVSPropertyOp23
 70
     1
102
RTVSPropertyOp24
 70
     1
102
RTVSPropertyOp25
 70
     1
102
RTVSPropertyOp26
 70
     1
102
RTVSPropertyOp27
 70
     1
102
RTVSPropertyOp28
 70
     1
102
RTVSPropertyOp29
 70
     1
102
RTVSPropertyOp30
 70
     1
102
RTVSPropertyOp31
 70
     1
102
RTVSPropertyOp32
 70
     1
  0
XRECORD
  5
1A5
102
{ACAD_REACTORS
330
1A4
102
}
330
1A4
100
AcDbXrecord
280
     1
102
RTVSPropertyOp0
 70
     1
102
RTVSPropertyOp1
 70
     1
102
RTVSPropertyOp2
 70
     1
102
RTVSPropertyOp3
 70
     1
102
RTVSPropertyOp4
 70
     1
102
RTVSPropertyOp5
 70
     1
102
RTVSPropertyOp6
 70
     1
102
RTVSPropertyOp7
 70
     1
102
RTVSPropertyOp8
 70
     1
102
RTVSPropertyOp9
 70
     1
102
RTVSPropertyOp10
 70
     1
102
RTVSPropertyOp11
 70
     1
102
RTVSPropertyOp12
 70
     1
102
RTVSPropertyOp13
 70
     1
102
RTVSPropertyOp14
 70
     1
102
RTVSPropertyOp15
 70
     1
102
RTVSPropertyOp16
 70
     1
102
RTVSPropertyOp17
 70
     1
102
RTVSPropertyOp18
 70
     1
102
RTVSPropertyOp19
 70
     1
102
RTVSPropertyOp20
 70
     1
102
RTVSPropertyOp21
 70
     1
102
RTVSPropertyOp22
 70
     1
102
RTVSPropertyOp23
 70
     1
102
RTVSPropertyOp24
 70
     1
102
RTVSPropertyOp25
 70
     1
102
RTVSPropertyOp26
 70
     1
102
RTVSPropertyOp27
 70
     1
102
RTVSPropertyOp28
 70
     1
102
RTVSPropertyOp29
 70
     1
102
RTVSPropertyOp30
 70
     1
102
RTVSPropertyOp31
 70
     1
102
RTVSPropertyOp32
 70
     1
  0
XRECORD
  5
1AD
102
{ACAD_REACTORS
330
1AC
102
}
330
1AC
100
AcDbXrecord
280
     1
102
RTVSPropertyOp0
 70
     1
102
RTVSPropertyOp1
 70
     1
102
RTVSPropertyOp2
 70
     1
102
RTVSPropertyOp3
 70
     1
102
RTVSPropertyOp4
 70
     1
102
RTVSPropertyOp5
 70
     1
102
RTVSPropertyOp6
 70
     1
102
RTVSPropertyOp7
 70
     1
102
RTVSPropertyOp8
 70
     1
102
RTVSPropertyOp9
 70
     1
102
RTVSPropertyOp10
 70
     1
102
RTVSPropertyOp11
 70
     1
102
RTVSPropertyOp12
 70
     1
102
RTVSPropertyOp13
 70
     1
102
RTVSPropertyOp14
 70
     1
102
RTVSPropertyOp15
 70
     1
102
RTVSPropertyOp16
 70
     1
102
RTVSPropertyOp17
 70
     1
102
RTVSPropertyOp18
 70
     1
102
RTVSPropertyOp19
 70
     1
102
RTVSPropertyOp20
 70
     1
102
RTVSPropertyOp21
 70
     1
102
RTVSPropertyOp22
 70
     1
102
RTVSPropertyOp23
 70
     1
102
RTVSPropertyOp24
 70
     1
102
RTVSPropertyOp25
 70
     1
102
RTVSPropertyOp26
 70
     1
102
RTVSPropertyOp27
 70
     1
102
RTVSPropertyOp28
 70
     1
102
RTVSPropertyOp29
 70
     1
102
RTVSPropertyOp30
 70
     1
102
RTVSPropertyOp31
 70
     1
102
RTVSPropertyOp32
 70
     1
  0
XRECORD
  5
1A1
102
{ACAD_REACTORS
330
1A0
102
}
330
1A0
100
AcDbXrecord
280
     1
102
RTVSPropertyOp0
 70
     1
102
RTVSPropertyOp1
 70
     1
102
RTVSPropertyOp2
 70
     1
102
RTVSPropertyOp3
 70
     1
102
RTVSPropertyOp4
 70
     1
102
RTVSPropertyOp5
 70
     1
102
RTVSPropertyOp6
 70
     1
102
RTVSPropertyOp7
 70
     1
102
RTVSPropertyOp8
 70
     1
102
RTVSPropertyOp9
 70
     1
102
RTVSPropertyOp10
 70
     1
102
RTVSPropertyOp11
 70
     1
102
RTVSPropertyOp12
 70
     1
102
RTVSPropertyOp13
 70
     1
102
RTVSPropertyOp14
 70
     1
102
RTVSPropertyOp15
 70
     1
102
RTVSPropertyOp16
 70
     1
102
RTVSPropertyOp17
 70
     1
102
RTVSPropertyOp18
 70
     1
102
RTVSPropertyOp19
 70
     1
102
RTVSPropertyOp20
 70
     1
102
RTVSPropertyOp21
 70
     1
102
RTVSPropertyOp22
 70
     1
102
RTVSPropertyOp23
 70
     1
102
RTVSPropertyOp24
 70
     1
102
RTVSPropertyOp25
 70
     1
102
RTVSPropertyOp26
 70
     1
102
RTVSPropertyOp27
 70
     1
102
RTVSPropertyOp28
 70
     1
102
RTVSPropertyOp29
 70
     1
102
RTVSPropertyOp30
 70
     1
102
RTVSPropertyOp31
 70
     1
102
RTVSPropertyOp32
 70
     1
  0
XRECORD
  5
1A3
102
{ACAD_REACTORS
330
1A2
102
}
330
1A2
100
AcDbXrecord
280
     1
102
RTVSPropertyOp0
 70
     1
102
RTVSPropertyOp1
 70
     1
102
RTVSPropertyOp2
 70
     1
102
RTVSPropertyOp3
 70
     1
102
RTVSPropertyOp4
 70
     1
102
RTVSPropertyOp5
 70
     1
102
RTVSPropertyOp6
 70
     1
102
RTVSPropertyOp7
 70
     1
102
RTVSPropertyOp8
 70
     1
102
RTVSPropertyOp9
 70
     1
102
RTVSPropertyOp10
 70
     1
102
RTVSPropertyOp11
 70
     1
102
RTVSPropertyOp12
 70
     1
102
RTVSPropertyOp13
 70
     1
102
RTVSPropertyOp14
 70
     1
102
RTVSPropertyOp15
 70
     1
102
RTVSPropertyOp16
 70
     1
102
RTVSPropertyOp17
 70
     1
102
RTVSPropertyOp18
 70
     1
102
RTVSPropertyOp19
 70
     1
102
RTVSPropertyOp20
 70
     1
102
RTVSPropertyOp21
 70
     1
102
RTVSPropertyOp22
 70
     1
102
RTVSPropertyOp23
 70
     1
102
RTVSPropertyOp24
 70
     1
102
RTVSPropertyOp25
 70
     1
102
RTVSPropertyOp26
 70
     1
102
RTVSPropertyOp27
 70
     1
102
RTVSPropertyOp28
 70
     1
102
RTVSPropertyOp29
 70
     1
102
RTVSPropertyOp30
 70
     1
102
RTVSPropertyOp31
 70
     1
102
RTVSPropertyOp32
 70
     1
  0
XRECORD
  5
1AB
102
{ACAD_REACTORS
330
1AA
102
}
330
1AA
100
AcDbXrecord
280
     1
102
RTVSPropertyOp0
 70
     1
102
RTVSPropertyOp1
 70
     1
102
RTVSPropertyOp2
 70
     1
102
RTVSPropertyOp3
 70
     1
102
RTVSPropertyOp4
 70
     1
102
RTVSPropertyOp5
 70
     1
102
RTVSPropertyOp6
 70
     1
102
RTVSPropertyOp7
 70
     1
102
RTVSPropertyOp8
 70
     1
102
RTVSPropertyOp9
 70
     1
102
RTVSPropertyOp10
 70
     1
102
RTVSPropertyOp11
 70
     1
102
RTVSPropertyOp12
 70
     1
102
RTVSPropertyOp13
 70
     1
102
RTVSPropertyOp14
 70
     1
102
RTVSPropertyOp15
 70
     1
102
RTVSPropertyOp16
 70
     1
102
RTVSPropertyOp17
 70
     1
102
RTVSPropertyOp18
 70
     1
102
RTVSPropertyOp19
 70
     1
102
RTVSPropertyOp20
 70
     1
102
RTVSPropertyOp21
 70
     1
102
RTVSPropertyOp22
 70
     1
102
RTVSPropertyOp23
 70
     1
102
RTVSPropertyOp24
 70
     1
102
RTVSPropertyOp25
 70
     1
102
RTVSPropertyOp26
 70
     1
102
RTVSPropertyOp27
 70
     1
102
RTVSPropertyOp28
 70
     1
102
RTVSPropertyOp29
 70
     1
102
RTVSPropertyOp30
 70
     1
102
RTVSPropertyOp31
 70
     1
102
RTVSPropertyOp32
 70
     1
  0
XRECORD
  5
18F
102
{ACAD_REACTORS
330
18E
102
}
330
18E
100
AcDbXrecord
280
     1
102
RTVSPropertyOp0
 70
     1
102
RTVSPropertyOp1
 70
     1
102
RTVSPropertyOp2
 70
     1
102
RTVSPropertyOp3
 70
     1
102
RTVSPropertyOp4
 70
     1
102
RTVSPropertyOp5
 70
     1
102
RTVSPropertyOp6
 70
     1
102
RTVSPropertyOp7
 70
     1
102
RTVSPropertyOp8
 70
     1
102
RTVSPropertyOp9
 70
     1
102
RTVSPropertyOp10
 70
     1
102
RTVSPropertyOp11
 70
     1
102
RTVSPropertyOp12
 70
     1
102
RTVSPropertyOp13
 70
     1
102
RTVSPropertyOp14
 70
     1
102
RTVSPropertyOp15
 70
     1
102
RTVSPropertyOp16
 70
     1
102
RTVSPropertyOp17
 70
     1
102
RTVSPropertyOp18
 70
     1
102
RTVSPropertyOp19
 70
     1
102
RTVSPropertyOp20
 70
     1
102
RTVSPropertyOp21
 70
     1
102
RTVSPropertyOp22
 70
     1
102
RTVSPropertyOp23
 70
     1
102
RTVSPropertyOp24
 70
     1
102
RTVSPropertyOp25
 70
     1
102
RTVSPropertyOp26
 70
     1
102
RTVSPropertyOp27
 70
     1
102
RTVSPropertyOp28
 70
     1
102
RTVSPropertyOp29
 70
     1
102
RTVSPropertyOp30
 70
     1
102
RTVSPropertyOp31
 70
     1
102
RTVSPropertyOp32
 70
     1
  0
XRECORD
  5
191
102
{ACAD_REACTORS
330
190
102
}
330
190
100
AcDbXrecord
280
     1
102
RTVSPropertyOp0
 70
     1
102
RTVSPropertyOp1
 70
     1
102
RTVSPropertyOp2
 70
     1
102
RTVSPropertyOp3
 70
     1
102
RTVSPropertyOp4
 70
     1
102
RTVSPropertyOp5
 70
     1
102
RTVSPropertyOp6
 70
     1
102
RTVSPropertyOp7
 70
     1
102
RTVSPropertyOp8
 70
     1
102
RTVSPropertyOp9
 70
     1
102
RTVSPropertyOp10
 70
     1
102
RTVSPropertyOp11
 70
     1
102
RTVSPropertyOp12
 70
     1
102
RTVSPropertyOp13
 70
     1
102
RTVSPropertyOp14
 70
     1
102
RTVSPropertyOp15
 70
     1
102
RTVSPropertyOp16
 70
     1
102
RTVSPropertyOp17
 70
     1
102
RTVSPropertyOp18
 70
     1
102
RTVSPropertyOp19
 70
     1
102
RTVSPropertyOp20
 70
     1
102
RTVSPropertyOp21
 70
     1
102
RTVSPropertyOp22
 70
     1
102
RTVSPropertyOp23
 70
     1
102
RTVSPropertyOp24
 70
     1
102
RTVSPropertyOp25
 70
     1
102
RTVSPropertyOp26
 70
     1
102
RTVSPropertyOp27
 70
     1
102
RTVSPropertyOp28
 70
     1
102
RTVSPropertyOp29
 70
     1
102
RTVSPropertyOp30
 70
     1
102
RTVSPropertyOp31
 70
     1
102
RTVSPropertyOp32
 70
     1
  0
XRECORD
  5
193
102
{ACAD_REACTORS
330
192
102
}
330
192
100
AcDbXrecord
280
     1
102
RTVSPropertyOp0
 70
     1
102
RTVSPropertyOp1
 70
     1
102
RTVSPropertyOp2
 70
     1
102
RTVSPropertyOp3
 70
     1
102
RTVSPropertyOp4
 70
     1
102
RTVSPropertyOp5
 70
     1
102
RTVSPropertyOp6
 70
     1
102
RTVSPropertyOp7
 70
     1
102
RTVSPropertyOp8
 70
     1
102
RTVSPropertyOp9
 70
     1
102
RTVSPropertyOp10
 70
     1
102
RTVSPropertyOp11
 70
     1
102
RTVSPropertyOp12
 70
     1
102
RTVSPropertyOp13
 70
     1
102
RTVSPropertyOp14
 70
     1
102
RTVSPropertyOp15
 70
     1
102
RTVSPropertyOp16
 70
     1
102
RTVSPropertyOp17
 70
     1
102
RTVSPropertyOp18
 70
     1
102
RTVSPropertyOp19
 70
     1
102
RTVSPropertyOp20
 70
     1
102
RTVSPropertyOp21
 70
     1
102
RTVSPropertyOp22
 70
     1
102
RTVSPropertyOp23
 70
     1
102
RTVSPropertyOp24
 70
     1
102
RTVSPropertyOp25
 70
     1
102
RTVSPropertyOp26
 70
     1
102
RTVSPropertyOp27
 70
     1
102
RTVSPropertyOp28
 70
     1
102
RTVSPropertyOp29
 70
     1
102
RTVSPropertyOp30
 70
     1
102
RTVSPropertyOp31
 70
     1
102
RTVSPropertyOp32
 70
     1
  0
XRECORD
  5
195
102
{ACAD_REACTORS
330
194
102
}
330
194
100
AcDbXrecord
280
     1
102
RTVSPropertyOp0
 70
     1
102
RTVSPropertyOp1
 70
     1
102
RTVSPropertyOp2
 70
     1
102
RTVSPropertyOp3
 70
     1
102
RTVSPropertyOp4
 70
     1
102
RTVSPropertyOp5
 70
     1
102
RTVSPropertyOp6
 70
     1
102
RTVSPropertyOp7
 70
     1
102
RTVSPropertyOp8
 70
     1
102
RTVSPropertyOp9
 70
     1
102
RTVSPropertyOp10
 70
     1
102
RTVSPropertyOp11
 70
     1
102
RTVSPropertyOp12
 70
     1
102
RTVSPropertyOp13
 70
     1
102
RTVSPropertyOp14
 70
     1
102
RTVSPropertyOp15
 70
     1
102
RTVSPropertyOp16
 70
     1
102
RTVSPropertyOp17
 70
     1
102
RTVSPropertyOp18
 70
     1
102
RTVSPropertyOp19
 70
     1
102
RTVSPropertyOp20
 70
     1
102
RTVSPropertyOp21
 70
     1
102
RTVSPropertyOp22
 70
     1
102
RTVSPropertyOp23
 70
     1
102
RTVSPropertyOp24
 70
     1
102
RTVSPropertyOp25
 70
     1
102
RTVSPropertyOp26
 70
     1
102
RTVSPropertyOp27
 70
     1
102
RTVSPropertyOp28
 70
     1
102
RTVSPropertyOp29
 70
     1
102
RTVSPropertyOp30
 70
     1
102
RTVSPropertyOp31
 70
     1
102
RTVSPropertyOp32
 70
     1
  0
XRECORD
  5
1A9
102
{ACAD_REACTORS
330
1A8
102
}
330
1A8
100
AcDbXrecord
280
     1
102
RTVSPropertyOp0
 70
     1
102
RTVSPropertyOp1
 70
     1
102
RTVSPropertyOp2
 70
     1
102
RTVSPropertyOp3
 70
     1
102
RTVSPropertyOp4
 70
     1
102
RTVSPropertyOp5
 70
     1
102
RTVSPropertyOp6
 70
     1
102
RTVSPropertyOp7
 70
     1
102
RTVSPropertyOp8
 70
     1
102
RTVSPropertyOp9
 70
     1
102
RTVSPropertyOp10
 70
     1
102
RTVSPropertyOp11
 70
     1
102
RTVSPropertyOp12
 70
     1
102
RTVSPropertyOp13
 70
     1
102
RTVSPropertyOp14
 70
     1
102
RTVSPropertyOp15
 70
     1
102
RTVSPropertyOp16
 70
     1
102
RTVSPropertyOp17
 70
     1
102
RTVSPropertyOp18
 70
     1
102
RTVSPropertyOp19
 70
     1
102
RTVSPropertyOp20
 70
     1
102
RTVSPropertyOp21
 70
     1
102
RTVSPropertyOp22
 70
     1
102
RTVSPropertyOp23
 70
     1
102
RTVSPropertyOp24
 70
     1
102
RTVSPropertyOp25
 70
     1
102
RTVSPropertyOp26
 70
     1
102
RTVSPropertyOp27
 70
     1
102
RTVSPropertyOp28
 70
     1
102
RTVSPropertyOp29
 70
     1
102
RTVSPropertyOp30
 70
     1
102
RTVSPropertyOp31
 70
     1
102
RTVSPropertyOp32
 70
     1
  0
XRECORD
  5
19F
102
{ACAD_REACTORS
330
19E
102
}
330
19E
100
AcDbXrecord
280
     1
102
RTVSPropertyOp0
 70
     1
102
RTVSPropertyOp1
 70
     1
102
RTVSPropertyOp2
 70
     1
102
RTVSPropertyOp3
 70
     1
102
RTVSPropertyOp4
 70
     1
102
RTVSPropertyOp5
 70
     1
102
RTVSPropertyOp6
 70
     1
102
RTVSPropertyOp7
 70
     1
102
RTVSPropertyOp8
 70
     1
102
RTVSPropertyOp9
 70
     1
102
RTVSPropertyOp10
 70
     1
102
RTVSPropertyOp11
 70
     1
102
RTVSPropertyOp12
 70
     1
102
RTVSPropertyOp13
 70
     1
102
RTVSPropertyOp14
 70
     1
102
RTVSPropertyOp15
 70
     1
102
RTVSPropertyOp16
 70
     1
102
RTVSPropertyOp17
 70
     1
102
RTVSPropertyOp18
 70
     1
102
RTVSPropertyOp19
 70
     1
102
RTVSPropertyOp20
 70
     1
102
RTVSPropertyOp21
 70
     1
102
RTVSPropertyOp22
 70
     1
102
RTVSPropertyOp23
 70
     1
102
RTVSPropertyOp24
 70
     1
102
RTVSPropertyOp25
 70
     1
102
RTVSPropertyOp26
 70
     1
102
RTVSPropertyOp27
 70
     1
102
RTVSPropertyOp28
 70
     1
102
RTVSPropertyOp29
 70
     1
102
RTVSPropertyOp30
 70
     1
102
RTVSPropertyOp31
 70
     1
102
RTVSPropertyOp32
 70
     1
  0
XRECORD
  5
1A7
102
{ACAD_REACTORS
330
1A6
102
}
330
1A6
100
AcDbXrecord
280
     1
102
RTVSPropertyOp0
 70
     1
102
RTVSPropertyOp1
 70
     1
102
RTVSPropertyOp2
 70
     1
102
RTVSPropertyOp3
 70
     1
102
RTVSPropertyOp4
 70
     1
102
RTVSPropertyOp5
 70
     1
102
RTVSPropertyOp6
 70
     1
102
RTVSPropertyOp7
 70
     1
102
RTVSPropertyOp8
 70
     1
102
RTVSPropertyOp9
 70
     1
102
RTVSPropertyOp10
 70
     1
102
RTVSPropertyOp11
 70
     1
102
RTVSPropertyOp12
 70
     1
102
RTVSPropertyOp13
 70
     1
102
RTVSPropertyOp14
 70
     1
102
RTVSPropertyOp15
 70
     1
102
RTVSPropertyOp16
 70
     1
102
RTVSPropertyOp17
 70
     1
102
RTVSPropertyOp18
 70
     1
102
RTVSPropertyOp19
 70
     1
102
RTVSPropertyOp20
 70
     1
102
RTVSPropertyOp21
 70
     1
102
RTVSPropertyOp22
 70
     1
102
RTVSPropertyOp23
 70
     1
102
RTVSPropertyOp24
 70
     1
102
RTVSPropertyOp25
 70
     1
102
RTVSPropertyOp26
 70
     1
102
RTVSPropertyOp27
 70
     1
102
RTVSPropertyOp28
 70
     1
102
RTVSPropertyOp29
 70
     1
102
RTVSPropertyOp30
 70
     1
102
RTVSPropertyOp31
 70
     1
102
RTVSPropertyOp32
 70
     1
  0
ENDSEC
  0
EOF
